<?xml version="1.0" standalone="no"?>
<!DOCTYPE svg PUBLIC "-//W3C//DTD SVG 1.1//EN" "http://www.w3.org/Graphics/SVG/1.1/DTD/svg11.dtd" >
<svg xmlns="http://www.w3.org/2000/svg">
<metadata></metadata>
<defs>
<font id="bitterregular" horiz-adv-x="1157" >
<font-face units-per-em="2048" ascent="1638" descent="-410" />
<missing-glyph horiz-adv-x="471" />
<glyph horiz-adv-x="2048" />
<glyph horiz-adv-x="2048" />
<glyph unicode="&#xd;" horiz-adv-x="681" />
<glyph unicode=" "  horiz-adv-x="471" />
<glyph unicode="&#x09;" horiz-adv-x="471" />
<glyph unicode="&#xa0;" horiz-adv-x="471" />
<glyph unicode="!" horiz-adv-x="655" d="M195 121q0 68 37.5 106.5t97.5 38.5q59 0 95 -38t36 -105q0 -66 -38 -104.5t-97 -38.5t-95 37.5t-36 103.5zM215 1536h236l-31 -1024l-174 -10z" />
<glyph unicode="&#x22;" horiz-adv-x="794" d="M133 1065v512h195l-41 -512h-154zM485 1065v512h195l-41 -512h-154z" />
<glyph unicode="#" horiz-adv-x="1413" d="M133 348v133h238l39 297h-226v133h244l43 318h164l-43 -318h297l43 318h164l-43 -318h227v-133h-246l-39 -297h234v-133h-252l-45 -348h-164l45 348h-297l-45 -348h-164l45 348h-219zM535 481h296l39 297h-297z" />
<glyph unicode="$" horiz-adv-x="1116" d="M133 51v328h143l41 -189q76 -41 193 -40q61 0 113.5 12t92.5 35.5t62.5 58.5t22.5 82q0 72 -49.5 113t-122 71.5t-157.5 58t-157.5 70.5t-122 111.5t-49.5 179.5q0 156 97.5 245t251.5 111v238h153v-231q154 -12 283 -60l45 -16l-10 -307h-123l-52 184q-94 41 -202 41 q-109 0 -173.5 -51.5t-64.5 -122.5q0 -72 48 -114t122 -73.5t158 -60.5t157.5 -71t122 -107.5t48.5 -167.5q0 -162 -99.5 -260.5t-259.5 -126.5v-279h-153v267q-43 0 -89.5 5t-88.5 13t-76.5 17.5t-57.5 17.5z" />
<glyph unicode="%" horiz-adv-x="1669" d="M92 1083q0 86 24.5 156t69.5 117t105.5 72.5t134.5 25.5q147 0 234.5 -89t87.5 -263t-93 -269.5t-243 -95.5q-147 0 -233.5 86t-86.5 260zM246 1096q0 -225 174 -226q174 0 174 226q0 225 -174 225t-174 -225zM317 0l830 1434h184l-829 -1434h-185zM901 326 q0 86 24.5 155.5t69.5 116.5t105.5 72.5t134.5 25.5q147 0 234 -89t87 -263t-92.5 -269t-242.5 -95q-147 0 -233.5 86t-86.5 260zM1055 338q0 -225 174 -225t174 225t-174 225t-174 -225z" />
<glyph unicode="&#x26;" horiz-adv-x="1372" d="M143 399q0 70 27 128.5t65.5 104.5t81.5 78.5t74 51.5l29 16q-35 8 -77 32t-79 60.5t-61.5 90t-24.5 124.5q0 186 125 277.5t352 91.5q39 0 85 -6t92.5 -15.5t87.5 -20.5t67 -19l57 -21l-10 -287h-131l-43 164q-84 31 -215 31q-256 0 -256 -211q0 -49 20.5 -91t57.5 -73 t85 -48t103 -17h635v-123l-164 -41v-246q0 -215 -133 -332.5t-375 -117.5q-240 0 -357.5 111.5t-117.5 307.5zM358 401q0 -123 76 -185t209 -62q135 0 207 68.5t72 197.5v256h-277q-57 0 -108.5 -20.5t-91 -56.5t-63.5 -86t-24 -112z" />
<glyph unicode="'" horiz-adv-x="440" d="M133 1065v512h195l-41 -512h-154z" />
<glyph unicode="(" horiz-adv-x="675" d="M152 565q0 154 19 282t60 246.5t106 236.5t155 247h184q-147 -227 -233.5 -488.5t-86.5 -519.5q0 -123 21.5 -262t62.5 -277.5t100.5 -267.5t133.5 -233h-182q-90 125 -155 246t-106 245.5t-60 259t-19 285.5z" />
<glyph unicode=")" horiz-adv-x="675" d="M-2 1577h184q90 -129 154.5 -247t105.5 -237.5t60.5 -247.5t19.5 -280q0 -150 -19.5 -284t-61.5 -258.5t-106.5 -246.5t-152.5 -247h-182q74 104 132 233t100 267.5t63.5 277.5t21.5 262q0 258 -86 519.5t-233 488.5z" />
<glyph unicode="*" horiz-adv-x="825" d="M51 1198l49 143l248 -94l27 -65l-62 -35l72 4l14 -70l-133 -231l-123 86l170 211zM322 1501l149 4l-14 -260l235 101l51 -144l-256 -59l172 -203l-118 -90l-142 231l19 70l69 -8l-59 39l29 63l-56 -45l-53 47z" />
<glyph unicode="+" horiz-adv-x="1269" d="M102 461v164h447v460h174v-460h444v-164h-444v-461h-174v461h-447z" />
<glyph unicode="," horiz-adv-x="542" d="M82 -238q109 145 108 218q0 10 -6 25t-17 38t-17.5 47.5t-6.5 48.5q0 49 37 88t96 39q133 0 134 -151q0 -180 -236 -430z" />
<glyph unicode="-" horiz-adv-x="768" d="M123 471v174h532v-174h-532z" />
<glyph unicode="." horiz-adv-x="532" d="M133 121q0 68 38 106.5t97 38.5t95 -38t36 -105q0 -66 -38 -104.5t-97 -38.5t-95 37.5t-36 103.5z" />
<glyph unicode="/" horiz-adv-x="1036" d="M82 0l678 1434h215l-678 -1434h-215z" />
<glyph unicode="0" horiz-adv-x="1320" d="M143 717q0 737 543 737q141 0 238.5 -44t158 -133t88 -224t27.5 -316q0 -758 -532 -757q-522 0 -523 737zM369 717q0 -563 307 -563q160 0 228.5 140t68.5 431q0 287 -66.5 421t-232.5 134q-164 0 -234.5 -136t-70.5 -427z" />
<glyph unicode="1" horiz-adv-x="1048" d="M41 1120l477 314h172v-1260h307v-174h-837v174h315v1024l-348 -225z" />
<glyph unicode="2" horiz-adv-x="1167" d="M92 0v174q207 184 343 313t217 225.5t114 173.5t33 158q0 111 -74 173.5t-203 62.5q-100 0 -186 -31l-29 -10l-20 -195h-164l-10 328q221 82 442 82q106 0 192.5 -21.5t150 -67.5t95 -118.5t31.5 -173.5q0 -102 -34 -196.5t-110.5 -198t-199.5 -225t-301 -279.5h686v-174 h-973z" />
<glyph unicode="3" horiz-adv-x="1126" d="M41 82l61 164q174 -92 369 -92q141 0 224 67.5t83 190.5t-91 188.5t-247 65.5h-153v163h164q141 0 224 62.5t83 169.5q0 106 -72 162.5t-194 56.5q-111 0 -197 -31l-29 -10l-20 -184h-164l-10 317q221 82 436 82q213 0 339 -87t126 -271q0 -274 -266 -342 q137 -29 217 -120t80 -208q0 -119 -47.5 -204t-124 -138t-174 -78.5t-197.5 -25.5q-59 0 -116.5 7t-107 18t-88 25.5t-63.5 26.5z" />
<glyph unicode="4" horiz-adv-x="1249" d="M41 492l655 972l236 -30v-922h235v-174h-235v-338h-211v338h-660zM266 512h455v676z" />
<glyph unicode="5" horiz-adv-x="1085" d="M41 82l61 164q162 -92 359 -92q61 0 115.5 18t94.5 54t63.5 87.5t23.5 118.5q0 135 -110.5 205t-309.5 70h-215l27 727h776l-6 -174h-578l-18 -390h65q137 0 248 -30.5t187.5 -88t117.5 -136t41 -175.5q0 -109 -41 -193.5t-111.5 -146t-161.5 -91t-198 -29.5 q-59 0 -117.5 7t-109.5 18t-92 25.5t-62 26.5z" />
<glyph unicode="6" horiz-adv-x="1228" d="M123 604q0 190 48 347t142.5 268.5t234.5 173t322 61.5q94 0 154 -20l-10 -164q-31 4 -71 7t-87 3q-98 0 -173 -26.5t-129 -69.5t-91 -95.5t-60.5 -105.5t-35 -99t-15.5 -77l-4 -29q23 18 64 35.5t90 33t100 25t94 9.5q92 0 172 -30t139.5 -86t94.5 -137t35 -184 q0 -102 -39 -187t-105.5 -146.5t-157 -96t-190.5 -34.5q-131 0 -229.5 45t-163 128t-97 197.5t-32.5 253.5zM338 553q0 -203 87 -301t216 -98t205 73.5t76 202.5q0 276 -287 277q-37 0 -76 -6.5t-72.5 -17.5t-62.5 -23.5t-47 -22.5l-39 -23v-61z" />
<glyph unicode="7" horiz-adv-x="1028" d="M10 1055v379h983v-154l-547 -1280h-235l543 1249h-549l-41 -194h-154z" />
<glyph unicode="8" horiz-adv-x="1208" d="M102 389q0 78 31 140.5t79 106.5t95 72.5t78 43.5q-117 57 -179.5 130.5t-62.5 192.5q0 186 131.5 282.5t354.5 96.5t339.5 -101.5t116.5 -267.5q0 -70 -25.5 -124t-64.5 -94t-85 -66.5t-89 -40.5q133 -55 209 -136t76 -214q0 -94 -37 -173t-104.5 -136.5t-163.5 -89 t-213 -31.5t-208 29.5t-152.5 83.5t-93.5 129t-32 167zM328 399q0 -117 72.5 -180t203.5 -63t204 63t73 180q0 74 -54.5 135.5t-164.5 104.5l-99 39q-236 -106 -235 -279zM358 1075q0 -51 22.5 -89t61.5 -66.5t93.5 -54.5t115.5 -46q219 90 219 256q0 94 -66.5 149.5 t-189.5 55.5t-189.5 -55.5t-66.5 -149.5z" />
<glyph unicode="9" horiz-adv-x="1228" d="M92 991q0 104 39 189.5t106.5 147t156.5 94t190 32.5q129 0 226 -45t162.5 -127t99.5 -197.5t34 -255.5q0 -188 -47 -344.5t-139.5 -269.5t-230.5 -174t-320 -61q-94 0 -164 20l10 164q33 -4 68.5 -8t76.5 -4q109 0 189 27.5t137 71.5t93 98t57.5 108.5t31 101.5t11.5 78 l2 29q-23 -18 -64 -36t-90 -33t-100.5 -24.5t-94.5 -9.5q-92 0 -172.5 27.5t-140 82t-93.5 134.5t-34 184zM307 1004q0 -266 287 -267q76 -2 147.5 22.5t110.5 47.5l39 22v62q0 197 -87 293t-216 96t-205 -73.5t-76 -202.5z" />
<glyph unicode=":" horiz-adv-x="573" d="M154 121q0 68 37.5 106.5t97.5 38.5q59 0 95 -38t36 -105q0 -66 -38 -104.5t-97 -38.5t-95 37.5t-36 103.5zM154 788q0 72 39.5 108t95.5 36q55 0 93 -38t38 -106q0 -66 -38 -104.5t-97 -38.5q-60 0 -97 37q-35 41 -34 106z" />
<glyph unicode=";" horiz-adv-x="573" d="M92 -238l92 -77q236 250 236 430q0 152 -133 151q-66 0 -99.5 -40t-33.5 -99q0 -23 8 -46.5t17 -44t15.5 -36.5t6.5 -29q0 -12 -7.5 -33.5t-19.5 -46t-26.5 -49t-28.5 -43.5zM152 788q0 70 40.5 107t94.5 37q55 0 93 -38t38 -106t-39 -105.5t-98 -37.5q-58 0 -95 37 q-35 41 -34 106z" />
<glyph unicode="&#x3c;" horiz-adv-x="1249" d="M102 471v143l1045 471v-174l-819 -368l819 -379v-174z" />
<glyph unicode="=" horiz-adv-x="1228" d="M113 276v164h1003v-164h-1003zM113 676v164h1003v-164h-1003z" />
<glyph unicode="&#x3e;" horiz-adv-x="1249" d="M102 -10v174l820 379l-820 368v174l1045 -471v-143z" />
<glyph unicode="?" horiz-adv-x="985" d="M174 1479q137 47 258 47q90 0 167 -17.5t134.5 -55.5t88 -98.5t30.5 -146.5q0 -51 -16.5 -101t-43 -95t-60.5 -84t-68 -68q-94 -78 -143.5 -140.5t-47.5 -113.5l4 -127l-184 -12q-18 137 -19 195q0 41 21.5 78.5t55.5 74.5t76 72t81 69q129 111 129 232q0 164 -215 164 q-51 2 -97 -5.5t-87 -15.5l-31 -6zM268 121q0 68 38 106.5t97 38.5t95.5 -38t36.5 -105q0 -66 -38.5 -104.5t-97.5 -38.5t-95 37.5t-36 103.5z" />
<glyph unicode="@" horiz-adv-x="1679" d="M133 698q0 172 52.5 312.5t147.5 239t228 151.5t295 53t292 -50t220 -143.5t139 -226.5t49 -297q0 -197 -93 -308.5t-253 -111.5q-76 0 -138 33t-85 103q-18 -25 -48 -47.5t-63.5 -40t-67.5 -28.5t-63 -11q-111 0 -169 58t-58 171q0 227 332 227h111v99q0 113 -140 112 q-70 0 -174 -30l-35 -11l-37 117q152 63 287 64q262 0 262 -236v-367q0 -43 26 -66.5t71 -23.5q80 0 126 76t46 211q0 131 -38 236.5t-108.5 180.5t-172 115.5t-228.5 40.5q-125 0 -226.5 -39.5t-173 -115.5t-110.5 -184.5t-39 -245.5q0 -276 135 -429t377 -153 q117 0 215 39l31 12l82 -123q-143 -82 -338 -81q-326 0 -496 187t-170 531zM678 565q0 -104 106 -104q41 0 86 21.5t68 45.5l23 25v119h-99q-100 0 -142 -27t-42 -80z" />
<glyph unicode="A" horiz-adv-x="1484" d="M10 0v123l168 39l467 1261l205 11l455 -1272l170 -39v-123h-594v123l190 39l-78 227h-532l-80 -227l192 -39v-123h-563zM516 553h422l-207 616z" />
<glyph unicode="B" horiz-adv-x="1290" d="M82 0v123l174 41v1106l-174 41v112l379 11h235q201 0 321 -90.5t120 -268.5q0 -264 -267 -332q160 -37 239 -122.5t79 -210.5q0 -410 -522 -410h-584zM461 164h215q297 0 297 235q0 147 -89 207t-270 60h-153v-502zM461 819h153q143 0 225.5 58.5t82.5 169.5 q0 113 -65.5 168t-170.5 55h-225v-451z" />
<glyph unicode="C" horiz-adv-x="1320" d="M82 690q0 174 48 315.5t138 241t216 153.5t284 54q47 0 103.5 -7t110.5 -19.5t102.5 -25.5t78.5 -26l66 -24l-10 -346h-154l-55 233q-111 41 -262 41q-209 0 -320 -151.5t-111 -423.5q0 -274 120 -407.5t321 -133.5q45 0 97 10t101.5 29.5t90 41t67.5 42.5l53 41l82 -133 q-45 -45 -103.5 -84t-125 -69t-138 -46t-145.5 -16q-313 0 -484 181t-171 529z" />
<glyph unicode="D" horiz-adv-x="1495" d="M123 0v123l174 41v1106l-174 41v112l389 11h256q152 0 271.5 -46.5t202.5 -135.5t127 -219t44 -298t-48 -303t-136 -231.5t-213 -148.5t-279 -52h-614zM512 164h236q203 0 316.5 139t113.5 420q0 283 -111 415t-309 132h-246v-1106z" />
<glyph unicode="E" horiz-adv-x="1280" d="M123 0v123l174 41v1106l-174 41v112l389 11h625v-349h-133l-52 185h-440v-441h471v-163h-471v-502h471l41 205h133v-369h-1034z" />
<glyph unicode="F" horiz-adv-x="1167" d="M82 0v123l174 41v1106l-174 41v112l389 11h625v-338h-133l-52 174h-440v-461h471v-164h-471v-481l205 -41v-123h-594z" />
<glyph unicode="G" horiz-adv-x="1538" d="M123 690q0 174 48 315.5t138 241t216 153.5t284 54q47 0 103.5 -7t110.5 -19.5t102.5 -25.5t78.5 -26l66 -24l-10 -338h-134l-61 225q-127 41 -277 41q-209 0 -319.5 -149.5t-110.5 -428.5q0 -276 121 -412t330 -136q125 0 248 39l39 12v336l-174 41v112l532 11v-123 l-154 -41v-439q-2 0 -36.5 -19.5t-101 -43t-164 -41.5t-220.5 -18q-313 0 -484 181t-171 529z" />
<glyph unicode="H" horiz-adv-x="1628" d="M82 0v123l174 41v1106l-174 41v112l584 11v-123l-195 -41v-451h686v451l-194 41v112l583 11v-123l-174 -41v-1106l174 -41v-123h-583v123l194 41v491h-686v-491l195 -41v-123h-584z" />
<glyph unicode="I" horiz-adv-x="727" d="M82 0v123l174 41v1106l-174 41v112l563 11v-123l-174 -41v-1106l174 -41v-123h-563z" />
<glyph unicode="J" horiz-adv-x="735" d="M-41 -297l18 154h103q184 0 184 194v1219l-174 41v112l563 11v-123l-174 -41v-1178q0 -186 -103.5 -292.5t-285.5 -106.5z" />
<glyph unicode="K" horiz-adv-x="1454" d="M82 0v123l174 41v1106l-174 41v112l584 11v-123l-195 -41v-451h188l355 604l338 11v-123l-203 -41l-311 -518l422 -588l174 -41v-123h-584v123l174 41l-352 491h-201v-491l195 -41v-123h-584z" />
<glyph unicode="L" horiz-adv-x="1085" d="M72 0v123l174 41v1106l-174 41v112l563 11v-123l-174 -41v-1106h420l41 235h143v-399h-993z" />
<glyph unicode="M" horiz-adv-x="1792" d="M82 0v123l174 41v1106l-174 41v112l461 11l370 -820l387 809l431 11v-123l-175 -41v-1106l175 -41v-123h-574v123l195 41v1024l-62 -154l-317 -645l-164 -10l-317 665l-52 144v-1024l195 -41v-123h-553z" />
<glyph unicode="N" horiz-adv-x="1617" d="M82 0v123l174 41v1106l-174 41v112l430 11l676 -1145v981l-174 41v112l532 11v-123l-174 -41v-1270h-256l-676 1128v-964l195 -41v-123h-553z" />
<glyph unicode="O" horiz-adv-x="1546" d="M123 700q0 172 46 311.5t134 239t210 151.5t271 52q150 0 268.5 -50t201.5 -144.5t126 -227.5t43 -299t-49 -304t-138 -237.5t-214 -155.5t-277 -56q-301 0 -461.5 186t-160.5 534zM358 717q0 -563 400 -563q205 0 317.5 143t112.5 430q0 553 -410 553q-420 0 -420 -563z " />
<glyph unicode="P" horiz-adv-x="1208" d="M82 0v123l174 41v1106l-174 41v112l389 11h215q227 0 349 -113t122 -307q0 -236 -144.5 -359t-408.5 -123h-133v-368l174 -41v-123h-563zM471 696h133q338 0 338 287q0 127 -69.5 207t-196.5 80h-205v-574z" />
<glyph unicode="Q" horiz-adv-x="1546" d="M123 709q0 168 50 305t140 235.5t216 151.5t278 53t270.5 -49t199.5 -142.5t124 -226.5t43 -299q0 -139 -33 -257t-93.5 -212t-146.5 -159.5t-194 -98.5l221 -133q137 -82 215 -82q59 0 162 53l33 19l82 -123q-207 -123 -318 -123q-80 0 -266 113l-408 250 q-281 23 -428 206t-147 519zM348 721q0 -279 107.5 -423t322.5 -144q217 0 329 144t112 429q0 553 -420 553q-219 0 -335 -139.5t-116 -419.5z" />
<glyph unicode="R" horiz-adv-x="1331" d="M82 0v123l174 41v1106l-174 41v112l389 11h225q217 0 339 -98.5t122 -270.5q0 -301 -266 -399q49 -43 123 -185l162 -325l145 -33v-123h-307l-174 379q-72 154 -124 200t-153 46h-92v-461l174 -41v-123h-563zM471 778h154q150 0 233.5 67.5t83.5 178.5q0 113 -71.5 179.5 t-184.5 66.5h-215v-492z" />
<glyph unicode="S" horiz-adv-x="1224" d="M143 61v359h164l41 -215q37 -20 100.5 -35.5t124.5 -15.5t119 15t101 44t68.5 69t25.5 91q0 59 -33 99t-85 69.5t-117.5 52t-133.5 47.5q-72 31 -138.5 62.5t-118.5 77.5t-83 111.5t-31 162.5q0 102 40 178t106.5 125t156 72.5t187.5 23.5q45 0 96 -6t100.5 -15.5 t92.5 -20.5t73 -19l66 -21l-10 -348h-133l-70 219q-57 18 -113.5 26.5t-115.5 8.5t-107.5 -15.5t-82.5 -42t-52.5 -59.5t-18.5 -67q2 -86 57.5 -135.5t137.5 -84t177 -65.5t176 -77t135.5 -119.5t54.5 -192.5q0 -106 -41 -188t-113 -138.5t-170 -86.5t-211 -30 q-45 0 -97 6.5t-102.5 15.5t-93.5 20.5t-71 21.5z" />
<glyph unicode="T" d="M20 1065v369h1117v-369h-133l-52 205h-266v-1106l205 -41v-123h-625v123l205 41v1106h-266l-51 -205h-134z" />
<glyph unicode="U" horiz-adv-x="1617" d="M82 1311v112l584 11v-123l-195 -41v-717q0 -225 78 -312t264 -87t260 95t74 335v686l-195 41v112l584 11v-123l-174 -41v-686q0 -301 -127 -452.5t-428 -151.5t-426 140t-125 433v717z" />
<glyph unicode="V" horiz-adv-x="1433" d="M10 1311v112l574 11v-123l-187 -39l322 -996l342 994l-191 41v112l553 11v-123l-159 -41l-455 -1270h-205l-436 1270z" />
<glyph unicode="W" horiz-adv-x="2119" d="M10 1311v112l574 11v-123l-178 -41l219 -928l338 1081l194 11l332 -1115l254 951l-187 41v112l553 11v-123l-161 -41l-361 -1270h-225l-305 1163l-64 -231l-276 -932h-205l-342 1270z" />
<glyph unicode="X" horiz-adv-x="1433" d="M20 0v123l134 31l430 573l-379 543l-154 41v112l543 11v-123l-133 -41l266 -389l266 389l-143 41v112l543 11v-123l-185 -41l-368 -533l399 -573l174 -41v-123h-553v123l123 31l-287 419l-307 -409l174 -41v-123h-543z" />
<glyph unicode="Y" horiz-adv-x="1320" d="M20 1311v112l512 11v-123l-139 -41l273 -574l301 574l-158 41v112l491 11v-123l-126 -37l-406 -739v-371l174 -41v-123h-563v123l174 41v366l-395 742z" />
<glyph unicode="Z" horiz-adv-x="1259" d="M82 0v143l819 1127h-573l-52 -205h-133v369h1035v-144l-820 -1126h635l41 205h133v-369h-1085z" />
<glyph unicode="[" horiz-adv-x="706" d="M184 -471v2048l441 -10v-133l-246 -23v-1716l246 -23v-133z" />
<glyph unicode="\" horiz-adv-x="1036" d="M61 1434h215l678 -1434h-215z" />
<glyph unicode="]" horiz-adv-x="706" d="M82 -328l246 23v1716l-246 23v133l440 10v-2048l-440 10v133z" />
<glyph unicode="^" horiz-adv-x="1167" d="M123 655l389 779h143l389 -779h-178l-288 574l-281 -574h-174z" />
<glyph unicode="_" horiz-adv-x="1024" d="M0 -164h1024v-143h-1024v143z" />
<glyph unicode="`" horiz-adv-x="860" d="M195 1556l102 154l379 -297l-82 -113z" />
<glyph unicode="a" d="M92 287q0 317 471 317h164v164q0 184 -195 184q-111 0 -182 -22l-24 -8l-29 -154h-133l-10 256q221 82 405 82q180 0 276.5 -72.5t96.5 -245.5v-624l164 -41v-113l-318 -10l-43 143q-163 -163 -321 -163h-2q-160 0 -240 79.5t-80 227.5zM301 307q0 -80 38 -122t110 -42 q35 0 70.5 12.5t69.5 31t60.5 40t42.5 39.5l35 41v164h-143q-154 0 -218.5 -40t-64.5 -124z" />
<glyph unicode="b" horiz-adv-x="1198" d="M0 1454v113l369 10v-590q150 119 307 119q217 0 323.5 -141.5t106.5 -401.5q0 -127 -37 -234.5t-108.5 -185t-176 -120.5t-241.5 -43q-104 2 -187.5 9t-146.5 27l-45 15v1382zM369 164q49 -20 213 -21q82 0 140 31t96 85t55.5 129t17.5 163q0 184 -62.5 287.5 t-193.5 103.5q-102 0 -164.5 -40t-101.5 -93v-645z" />
<glyph unicode="c" horiz-adv-x="1044" d="M82 535q0 127 38 232t107.5 180t168 117t218.5 42q41 0 84 -6t84 -14.5t76 -19.5t60 -22l45 -20l-11 -276h-133l-31 174q-80 20 -184 20q-147 0 -227 -94t-80 -293t84 -305.5t233 -106.5q43 0 85 8.5t80 21.5t69 29.5t49 33.5l35 30l72 -123l-23 -18q-25 -20 -68 -46 t-95 -47.5t-110.5 -36.5t-113.5 -15q-250 0 -381 148t-131 407z" />
<glyph unicode="d" horiz-adv-x="1259" d="M92 516q0 268 137.5 429t405.5 161q100 0 194 -33v340l-174 41v113l379 10v-1413l174 -41v-113l-348 -10l-16 117q-137 -137 -338 -137q-199 0 -306.5 142t-107.5 394zM307 532q0 -180 62.5 -284.5t193.5 -104.5q100 0 170 54q65 53 96 100v604q-72 41 -215 41 q-307 0 -307 -410z" />
<glyph unicode="e" horiz-adv-x="1085" d="M82 526q0 127 37 233.5t103.5 183.5t158.5 120t203 43q430 0 430 -481l-10 -109l-707 -4q0 -168 81 -268.5t216 -100.5q45 0 90 8.5t85 20.5t72.5 27.5t55.5 29.5l41 27l72 -106q-70 -55 -128.5 -87t-137 -57.5t-171.5 -25.5q-242 0 -366.5 146t-124.5 400zM305 666h492 q0 125 -53.5 202.5t-172.5 77.5q-117 0 -186.5 -78.5t-79.5 -201.5z" />
<glyph unicode="f" horiz-adv-x="901" d="M143 922v133l185 20v123q0 186 98 292.5t281 106.5q86 0 162.5 -17t109.5 -36l35 -18v-256h-144l-30 164q-51 10 -140 10q-168 0 -168 -205v-164h271l-6 -153h-265v-758l199 -51v-113h-577v113l174 51v758h-185z" />
<glyph unicode="g" horiz-adv-x="1198" d="M92 -215q0 129 137 219q33 20 78 37q-55 8 -89 39t-34 70q0 68 80 196l27 43q-18 6 -50 37t-53 61q-55 86 -55 220q0 195 122 297t329 102q115 0 182 -29l22 -10l359 8v-112l-199 -29q55 -74 56 -207q0 -201 -121 -300t-330 -99q-90 0 -154 18l-10 -192h318 q201 0 305 -76t104 -230q0 -166 -135 -263t-397 -97q-492 0 -492 297zM297 -184q0 -100 79 -137t238 -37q307 0 308 194q0 94 -67 129t-200 35h-225q-10 -4 -40 -25.5t-46 -40.5q-47 -53 -47 -118zM395.5 537.5q57.5 -66.5 165.5 -66.5q125 0 181.5 58.5t56.5 187.5 q-1 246 -226 246q-235 0 -235 -244q0 -115 57.5 -181.5z" />
<glyph unicode="h" horiz-adv-x="1331" d="M51 0v113l174 51v1249l-174 41v113l379 10v-619q174 147 348 148q174 0 256 -97.5t82 -271.5v-573l154 -51v-113h-492v113l133 49v555q0 111 -41 163t-129 52q-43 0 -84 -11.5t-77.5 -30t-65.5 -40t-47 -41.5l-37 -41v-604l133 -51v-113h-512z" />
<glyph unicode="i" horiz-adv-x="686" d="M82 0v113l174 51v758l-174 41v112l379 10v-921l153 -51v-113h-532zM215 1423q0 68 38 106t95 38q133 0 133 -154q0 -63 -45 -98t-96 -35q-55 0 -90 38t-35 105z" />
<glyph unicode="j" horiz-adv-x="591" d="M-82 -481l19 143h102q104 0 144 52.5t40 152.5v1055l-174 41v112l379 10v-1177q0 -186 -97.5 -293t-281.5 -107zM172 1423q0 68 39 106t94 38q133 0 133 -154q0 -63 -45 -98t-96 -35q-55 0 -90 38t-35 105z" />
<glyph unicode="k" horiz-adv-x="1198" d="M51 0v113l174 51v1249l-174 41v113l379 10v-901h174l154 258l-92 29v112l450 10v-122l-145 -25h-2l-211 -313l264 -461h2l154 -51v-113h-277l-293 522h-178v-358l133 -51v-113h-512z" />
<glyph unicode="l" horiz-adv-x="649" d="M51 0v113l174 51v1249l-174 41v113l383 10v-1413l205 -51v-113h-588z" />
<glyph unicode="m" horiz-adv-x="2007" d="M82 0v113l174 51v758l-174 41v112l338 10l18 -145q29 27 70 56.5t90 54t103.5 40t107.5 15.5q207 0 285 -176q37 37 86 68.5t101 56t102.5 38t91.5 13.5q317 0 317 -369v-573l154 -51v-113h-492v113l133 51v553q0 113 -39 164t-127 51q-43 0 -83 -11.5t-74.5 -30t-61 -40 t-43.5 -41.5l-33 -41v-604l134 -51v-113h-472v113l134 51v553q0 113 -39 164t-127 51q-43 0 -83 -11.5t-75 -30t-61.5 -40t-42.5 -41.5l-33 -41v-604l133 -51v-113h-512z" />
<glyph unicode="n" horiz-adv-x="1361" d="M82 0v113l174 51v758l-174 41v112l338 10l18 -145q20 16 57 45t87.5 55.5t111 46t125.5 19.5q166 0 247 -97.5t81 -271.5v-573l153 -51v-113h-491v113l133 51v553q0 111 -43 163t-131 52q-43 0 -85 -11.5t-78 -30t-63.5 -40t-45.5 -41.5l-35 -41v-604l133 -51v-113h-512z " />
<glyph unicode="o" horiz-adv-x="1167" d="M82 526q0 131 38 238.5t107.5 183.5t164.5 117t210 41q229 0 356 -145.5t127 -403.5q0 -127 -36.5 -232.5t-103 -182t-162 -119.5t-212.5 -43q-233 0 -361 139t-128 407zM297 543q0 -399 287 -400q150 0 218 102.5t68 307.5q0 389 -276 389q-297 0 -297 -399z" />
<glyph unicode="p" horiz-adv-x="1259" d="M51 963v112l348 10l17 -114q143 135 311 135q217 0 328.5 -142.5t111.5 -404.5q0 -127 -33.5 -233.5t-103 -183t-173 -119.5t-243.5 -43q-86 0 -184 28v-325l215 -41v-113h-584v113l164 41v1239zM430 184q63 -41 215 -41q307 0 307 410q0 180 -65.5 284.5t-200.5 104.5 q-78 0 -146.5 -35.5t-109.5 -107.5v-615z" />
<glyph unicode="q" horiz-adv-x="1187" d="M92 512q0 133 37 242.5t109.5 187.5t177 121t239.5 43q199 0 334 -31l45 -10v-1382l164 -41v-113h-573v113l204 41v415q-149 -118 -304 -118h-3q-430 0 -430 532zM307 535q0 -184 62.5 -288t193.5 -104q102 0 165 40t101 93v646q-59 20 -217 20q-80 0 -137 -29.5t-94 -84 t-55.5 -129t-18.5 -164.5z" />
<glyph unicode="r" horiz-adv-x="952" d="M82 0v113l174 51v758l-174 41v112l338 10l18 -149q152 170 310 170q84 0 161 -25l23 -6l-10 -297h-134l-30 154q-176 0 -297 -160v-608l205 -51v-113h-584z" />
<glyph unicode="s" horiz-adv-x="964" d="M94 328h144l22 -176q20 -8 64.5 -13.5t87.5 -5.5q133 0 193.5 40t60.5 122q0 55 -42 88t-105.5 55.5t-138.5 45t-138.5 58.5t-105.5 93t-42 151q0 154 102.5 235t272.5 85q72 -2 146.5 -11.5t152.5 -33.5l51 -17l-6 -276h-133l-33 160q-16 6 -63 15t-101 9 q-37 0 -69.5 -6t-58 -20.5t-41 -41t-15.5 -65.5q0 -59 42 -93t105.5 -58.5t138 -47t138 -58.5t105.5 -91t42 -145q0 -86 -36.5 -151.5t-99 -110t-145.5 -66t-177 -21.5q-35 0 -73 3.5t-75 8.5t-68.5 11t-52.5 12l-47 13z" />
<glyph unicode="t" horiz-adv-x="808" d="M41 922v133l205 20v258l205 41v-299h297v-153h-297v-658q0 -125 102 -125q66 0 160 51l55 -108q-139 -102 -287 -102q-104 0 -169.5 68.5t-65.5 227.5v646h-205z" />
<glyph unicode="u" horiz-adv-x="1331" d="M41 963v112l379 10v-718q0 -109 43 -161t131 -52t161.5 41t108.5 79l37 41v607l-174 41v112l379 10v-921l174 -41v-113l-338 -10l-20 143q-86 -76 -195 -119.5t-184 -43.5q-164 0 -246 96t-82 270v576z" />
<glyph unicode="v" horiz-adv-x="1144" d="M10 963v112l461 10v-122l-143 -21l243 -758l246 748l-141 31v112l459 10v-122l-113 -21l-348 -942h-225l-336 932z" />
<glyph unicode="w" horiz-adv-x="1699" d="M10 963v112l461 10v-122l-154 -21l175 -758l268 891l194 31l254 -922l164 748l-143 31v112l461 10v-122l-119 -21l-250 -942h-236l-194 635l-49 196l-43 -196l-195 -635h-235l-256 932z" />
<glyph unicode="x" d="M10 0v113l180 47l261 383l-263 391l-157 29v112l467 10v-122l-72 -13l158 -264l245 389l297 10v-122l-174 -31l-256 -379l262 -393l189 -47v-113h-500v113l82 24l-168 271l-254 -408h-297z" />
<glyph unicode="y" horiz-adv-x="1181" d="M20 963v112l482 10v-122l-144 -21l246 -717l225 707l-143 31v112l485 10v-122l-133 -21l-290 -811q-102 -268 -152 -356q-154 -264 -401 -267l-132 11l19 143h102q100 0 175 84t151 250l-367 936z" />
<glyph unicode="z" horiz-adv-x="1034" d="M133 0v154l598 778h-385l-29 -154h-143v307h789v-153l-601 -778h418l29 163h143v-317h-819z" />
<glyph unicode="{" horiz-adv-x="757" d="M61 532v144q109 0 152 55t43 158v350q0 190 81 269t267 79h92v-133q-145 0 -198.5 -46t-53.5 -169v-350q0 -213 -190 -285q190 -72 190 -285v-432q0 -123 53.5 -169t198.5 -46v-133h-92q-186 0 -267 79t-81 269v432q0 102 -43 157.5t-152 55.5z" />
<glyph unicode="|" horiz-adv-x="573" d="M205 -471v2017h164v-2017h-164z" />
<glyph unicode="}" horiz-adv-x="768" d="M82 -328q145 0 198.5 46t53.5 169v432q0 213 190 285q-190 72 -190 285v350q0 123 -53.5 169t-198.5 46v133h92q186 0 267 -78.5t81 -269.5v-350q0 -102 43 -157.5t152 -55.5v-144q-109 0 -152 -55t-43 -158v-432q0 -190 -81 -269t-267 -79h-92v133z" />
<glyph unicode="~" horiz-adv-x="1282" d="M123 502q20 41 41.5 67.5t59.5 60.5t93.5 55.5t133.5 21.5q37 0 93 -19.5t117.5 -52.5t113.5 -52.5t83 -19.5q63 -2 110.5 30t71.5 62l25 31l94 -74q-14 -29 -41.5 -65.5t-65.5 -69.5t-86 -55.5t-104 -22.5q-57 0 -115.5 20.5t-125 52.5t-121 51.5t-86.5 19.5 q-59 -2 -106.5 -29t-69.5 -57l-21 -29z" />
<glyph unicode="&#xa1;" horiz-adv-x="645" d="M184 981q0 68 39 106.5t96 38.5q59 0 95.5 -37.5t36.5 -105.5q0 -66 -39 -104.5t-99 -38.5q-57 0 -93 37.5t-36 103.5zM205 -430l31 1024l174 10l30 -1034h-235z" />
<glyph unicode="&#xa2;" horiz-adv-x="1044" d="M92 729q0 205 103.5 340t296.5 168v197h153v-189q74 -4 150.5 -26.5t117.5 -42.5l39 -19l-10 -266h-133l-31 174q-68 20 -174 20q-154 0 -225.5 -77.5t-71.5 -249.5q0 -369 307 -369q39 0 77 7t72 18.5t61.5 26t43.5 26.5l33 25l80 -113q-29 -25 -70 -49.5t-87 -46 t-93 -37t-86 -19.5v-227h-153v231q-197 29 -298.5 162t-101.5 336z" />
<glyph unicode="&#xa3;" horiz-adv-x="1280" d="M123 0v123l113 31q72 18 92 75.5t20 141.5q0 43 -3 120.5t-11 194.5h-211v139l201 23q-6 98 -7 196q0 193 100.5 301.5t309.5 108.5q51 0 107.5 -5t106.5 -11t92 -13.5t65 -15.5l49 -16v-287h-133l-31 170q-61 8 -122.5 11t-123.5 3q-215 0 -215 -205q0 -66 2 -124 t6 -111h340v-164h-329q12 -184 12 -260q0 -39 -6 -76t-16.5 -68.5t-22.5 -56t-25 -37.5l-22 -24h520l43 215h133v-379h-1034z" />
<glyph unicode="&#xa4;" horiz-adv-x="1183" d="M102 225l160 160q-55 92 -55 217q0 129 63 225l-168 168l101 107l170 -168q100 70 229 70q125 0 219 -60l160 158l100 -107l-155 -155q59 -96 59 -224q0 -127 -65 -229l161 -162l-100 -106l-166 164q-102 -68 -229 -68q-129 0 -224 61l-159 -157zM381 610 q0 -119 52 -185.5t163 -66.5t163 67t52 185q0 250 -215 250t-215 -250z" />
<glyph unicode="&#xa5;" horiz-adv-x="1320" d="M20 1311v112l512 11v-123l-139 -41l273 -553l301 553l-158 41v112l491 11v-123l-126 -37l-306 -537h252v-143h-921v143h254l-295 535zM199 317v144h921v-144h-352v-153l174 -41v-123h-563v123l174 41v153h-354z" />
<glyph unicode="&#xa6;" horiz-adv-x="614" d="M215 297h164v-840h-164v840zM215 748v819h164v-819h-164z" />
<glyph unicode="&#xa7;" horiz-adv-x="1116" d="M154 727q0 199 147 301q-55 82 -55 191q0 86 29.5 155.5t82 118.5t124 76.5t155.5 27.5q78 -2 151.5 -15t108.5 -30l37 -16l-10 -328h-123l-49 215q-33 4 -63 7.5t-58 3.5q-90 0 -140.5 -55.5t-50.5 -127.5q0 -70 41 -121t102.5 -97t133 -91t133 -98t102.5 -121t41 -160 q0 -201 -147 -301q57 -88 57 -190q0 -84 -28.5 -154t-81 -120t-124 -77.5t-155.5 -27.5q-78 2 -152.5 15t-107.5 30l-37 16l10 328h131l43 -215q51 -10 123 -10q39 0 73 15t58.5 40t39 57.5t14.5 67.5q0 70 -41 122t-102.5 98t-134.5 90t-134 98.5t-102 122t-41 159.5z M348 772q0 -47 13.5 -84t42 -69.5t71.5 -65.5t105 -70q59 -39 100.5 -65.5t64.5 -46.5q53 59 54 147q0 47 -14.5 84t-43 68.5t-71.5 64.5t-103 70q-59 37 -100 65.5t-64 49.5q-55 -55 -55 -148z" />
<glyph unicode="&#xa8;" horiz-adv-x="1054" d="M205 1432q0 55 31.5 89.5t82.5 34.5t81 -34.5t30 -87.5q0 -55 -32.5 -89t-84.5 -34q-49 -1 -80 32q-29 33 -28 89zM625 1432q0 55 31.5 89.5t82.5 34.5t81 -34.5t30 -87.5q0 -55 -33 -89t-84 -34q-49 -1 -80 32q-29 33 -28 89z" />
<glyph unicode="&#xa9;" horiz-adv-x="1679" d="M92 707q0 160 56.5 297t155.5 237t236.5 156.5t299.5 56.5q160 0 297 -53t236.5 -149.5t156.5 -230.5t57 -296q0 -160 -59.5 -296t-162.5 -236.5t-243.5 -156.5t-302.5 -56q-323 -1 -526 202q-201 205 -201 525zM256 717q0 -131 41 -239.5t115.5 -186.5t180 -121 t236.5 -43t240 43t187.5 122t122.5 187.5t44 237.5q0 131 -44 239.5t-123.5 186.5t-188.5 121t-238 43q-259 0 -417 -164q-156 -162 -156 -426zM471 705q0 96 26.5 173.5t76 133t120 86t160.5 30.5q29 0 60.5 -4t62.5 -11t56.5 -15t43.5 -17l37 -16l-4 -217h-115l-28 139 q-59 16 -127 17q-195 0 -195 -291q0 -262 205 -262q49 0 103.5 22.5t84.5 44.5l31 23l55 -95l-39 -36q-10 -10 -36.5 -25.5t-61.5 -31t-74 -26t-73 -10.5q-174 0 -271.5 97.5t-97.5 290.5z" />
<glyph unicode="&#xaa;" horiz-adv-x="958" d="M133 877q0 227 332 227h110v102q0 49 -33.5 79t-78.5 30q-82 0 -160 -21l-20 -106h-113l-10 205q195 61 317 61q262 0 262 -235v-426l117 -29v-92l-223 -10l-33 106q-35 -41 -108.5 -81t-131.5 -40q-111 0 -169 58.5t-58 171.5zM150 338v143h706v-143h-706zM293 889 q0 -106 106 -107q43 0 87 22.5t67 47.5l22 22v119h-98q-96 0 -140 -25.5t-44 -78.5z" />
<glyph unicode="&#xab;" horiz-adv-x="1105" d="M123 481v123l287 328l122 -82l-225 -307l225 -307l-122 -82zM563 481v123l297 328l123 -82l-235 -307l235 -307l-123 -82z" />
<glyph unicode="&#xac;" horiz-adv-x="1259" d="M123 563v164h1024v-553h-174v389h-850z" />
<glyph unicode="&#xad;" horiz-adv-x="768" d="M123 471v174h532v-174h-532z" />
<glyph unicode="&#xae;" horiz-adv-x="1474" d="M113 922q0 133 47 246.5t131 197.5t198.5 132t247.5 48t248 -45t199 -126t131 -191.5t47 -241.5q0 -133 -50 -246.5t-138.5 -197.5t-205 -132.5t-251.5 -48.5q-268 0 -436 168t-168 437zM266 932q0 -111 32 -199t92.5 -151.5t145.5 -97t191 -33.5t195.5 34.5t153 98 t98 151.5t34.5 197q0 106 -34.5 195.5t-98 152.5t-152.5 98t-196 35q-211 0 -338 -133q-123 -133 -123 -348zM440 604v82l82 21v475l-82 16v76l308 6q104 0 171.5 -50t67.5 -138q0 -133 -127 -181q35 -37 58 -75l65 -129l82 -21v-82h-176l-82 174q-16 35 -28.5 56.5t-24 33 t-25.5 14.5t-35 3h-39v-178l82 -21v-82h-297zM655 979h72q55 0 89 26.5t34 73.5q0 98 -113 99h-82v-199z" />
<glyph unicode="&#xaf;" horiz-adv-x="716" d="M82 1352v153h553v-153h-553z" />
<glyph unicode="&#xb0;" horiz-adv-x="839" d="M102 1194q0 70 24 128t65.5 98t100 62.5t128.5 22.5q141 0 229 -79.5t88 -221.5q0 -70 -23.5 -127t-65.5 -99t-101 -64.5t-129 -22.5q-141 0 -228.5 81t-87.5 222zM246 1202q0 -86 44 -137t130 -51t130 51t44 137q0 88 -48 134t-126 46t-126 -46t-48 -134z" />
<glyph unicode="&#xb1;" horiz-adv-x="1259" d="M113 0v160h1034v-160h-1034zM113 618v160h430v328h174v-328h430v-160h-430v-331h-174v331h-430z" />
<glyph unicode="&#xb2;" horiz-adv-x="798" d="M72 573v142q84 70 148.5 121t106.5 86.5t60.5 53t45 44.5t36.5 44t23 40q20 37 20 84q0 123 -154 123q-66 0 -127 -21l-14 -123h-123l-6 224q147 53 277 53q332 0 331 -246q0 -117 -75.5 -209t-303.5 -270h400v-146h-645z" />
<glyph unicode="&#xb3;" horiz-adv-x="774" d="M41 639l41 123q123 -61 227 -62q193 0 193 129q0 119 -193 119h-84v125h94q172 0 173 131q0 106 -144 107q-84 0 -139 -19l-10 -114h-119l-8 227q164 39 297 39q135 0 216 -57.5t81 -151.5q0 -176 -181 -213q78 -8 137.5 -61.5t59.5 -129.5q0 -133 -97.5 -200.5 t-258.5 -67.5q-68 0 -138.5 19.5t-109.5 38.5z" />
<glyph unicode="&#xb4;" horiz-adv-x="860" d="M184 1413l379 297l103 -154l-400 -256z" />
<glyph unicode="&#xb6;" horiz-adv-x="1290" d="M123 1038q0 170 112.5 283t307.5 113h262l352 -11v-112l-174 -41v-1618h-178v1618h-162v-1618h-356v123l184 41v811q-150 16 -249 129.5t-99 281.5z" />
<glyph unicode="&#xb7;" horiz-adv-x="532" d="M129 623q0 72 39 110.5t100 38.5q63 0 99 -38t36 -109q0 -70 -39 -109t-102 -39q-61 0 -97 38t-36 108z" />
<glyph unicode="&#xb8;" horiz-adv-x="892" d="M225 -391l49 84q45 -23 81 -33t75 -10q51 0 83 24.5t32 59.5q0 55 -48 79.5t-102 24.5h-18v162h123v-88q86 -14 132 -61.5t46 -122.5q0 -37 -16.5 -70t-45 -56.5t-65.5 -37t-76 -13.5q-139 0 -221 43z" />
<glyph unicode="&#xb9;" horiz-adv-x="716" d="M31 1239l309 195h152v-727h184v-134h-553v134h194v542l-215 -133z" />
<glyph unicode="&#xba;" horiz-adv-x="1013" d="M123 1034q0 94 29.5 172t82 133.5t125 85t160.5 29.5q180 0 275.5 -101.5t95.5 -291.5q0 -94 -27.5 -171t-79 -131t-124 -84t-160.5 -30q-178 0 -277.5 98t-99.5 291zM143 338v143h727v-143h-727zM297 1049q0 -129 58.5 -195t156.5 -66t151.5 66t53.5 195t-54.5 195.5 t-152.5 66.5q-94 0 -153.5 -66.5t-59.5 -195.5z" />
<glyph unicode="&#xbb;" horiz-adv-x="1105" d="M123 236l235 307l-235 307l123 82l297 -328v-123l-297 -327zM573 236l226 307l-226 307l123 82l287 -328v-123l-287 -327z" />
<glyph unicode="&#xbc;" horiz-adv-x="1986" d="M82 1239l309 195h152v-727h184v-134h-553v134h194v542l-215 -133zM461 0l830 1434h184l-829 -1434h-185zM1125 310l415 573l201 -20v-541h144v-133h-144v-187h-174v187h-430zM1303 322h264v367z" />
<glyph unicode="&#xbd;" horiz-adv-x="1945" d="M82 1239l309 195h152v-727h184v-134h-553v134h194v542l-215 -133zM461 0l830 1434h184l-829 -1434h-185zM1188 2v142q84 70 148.5 121t106.5 86.5t60.5 53t45 44.5t36.5 44t23 40q20 37 20 84q0 123 -154 123q-66 0 -127 -21l-14 -123h-123l-6 224q147 53 277 53 q332 0 331 -246q0 -117 -75.5 -209t-303.5 -270h400v-146h-645z" />
<glyph unicode="&#xbe;" horiz-adv-x="1972" d="M72 639l41 123q123 -61 227 -62q193 0 193 129q0 119 -193 119h-84v125h94q172 0 173 131q0 106 -144 107q-84 0 -139 -19l-10 -114h-119l-8 227q164 39 297 39q135 0 216 -57.5t81 -151.5q0 -176 -181 -213q78 -8 137.5 -61.5t59.5 -129.5q0 -133 -97.5 -200.5 t-258.5 -67.5q-68 0 -138.5 19.5t-109.5 38.5zM446 0l830 1434h184l-829 -1434h-185zM1110 310l415 573l201 -20v-541h144v-133h-144v-187h-174v187h-430zM1288 322h264v367z" />
<glyph unicode="&#xbf;" horiz-adv-x="974" d="M133 -102q0 51 16.5 101t43 95t60.5 84t71 68q188 152 188 254l-4 127l184 12q18 -139 19 -195q0 -43 -21.5 -80.5t-55.5 -73.5t-76 -71t-83 -69q-127 -111 -127 -232q0 -164 215 -164q51 -2 97.5 4t87.5 17l30 6l33 -154q-137 -47 -258 -47q-90 0 -166 16.5t-133 54.5 t-89 98.5t-32 148.5zM451 981q0 68 39 106.5t96 38.5q59 0 95 -37.5t36 -105.5q0 -66 -39 -104.5t-98 -38.5q-57 0 -93 37.5t-36 103.5z" />
<glyph unicode="&#xc0;" horiz-adv-x="1484" d="M10 0v123l168 39l467 1261l205 11l455 -1272l170 -39v-123h-594v123l190 39l-78 227h-532l-80 -227l192 -39v-123h-563zM502 1761l102 154l379 -297l-82 -113zM516 553h422l-207 616z" />
<glyph unicode="&#xc1;" horiz-adv-x="1484" d="M10 0v123l168 39l467 1261l205 11l455 -1272l170 -39v-123h-594v123l190 39l-78 227h-532l-80 -227l192 -39v-123h-563zM516 553h422l-207 616zM633 1618l379 297l103 -154l-400 -256z" />
<glyph unicode="&#xc2;" horiz-adv-x="1484" d="M10 0v123l168 39l467 1261l205 11l455 -1272l170 -39v-123h-594v123l190 39l-78 227h-532l-80 -227l192 -39v-123h-563zM379 1628l297 246l123 10l297 -256l-82 -92l-272 191l-281 -191zM516 553h422l-207 616z" />
<glyph unicode="&#xc3;" horiz-adv-x="1484" d="M10 0v123l168 39l467 1261l205 11l455 -1272l170 -39v-123h-594v123l190 39l-78 227h-532l-80 -227l192 -39v-123h-563zM424 1720q37 86 98 139.5t131 53.5q41 0 81 -12.5t91 -33t92 -35t68 -14.5q49 0 81.5 21.5t47.5 44.5l16 20l72 -71q-8 -25 -28.5 -55.5t-49.5 -64.5 t-63.5 -49.5t-77.5 -15.5q-35 0 -83 13.5t-97.5 33t-88.5 32t-65 12.5q-47 -2 -84 -23.5t-53 -44.5l-17 -23zM516 553h422l-207 616z" />
<glyph unicode="&#xc4;" horiz-adv-x="1484" d="M10 0v123l168 39l467 1261l205 11l455 -1272l170 -39v-123h-594v123l190 39l-78 227h-532l-80 -227l192 -39v-123h-563zM430 1688q0 55 31.5 89.5t82.5 34.5t81 -34.5t30 -87.5q0 -55 -32.5 -89t-84.5 -34q-49 -1 -80 32q-29 33 -28 89zM516 553h422l-207 616zM850 1688 q0 55 31.5 89.5t82.5 34.5t81 -34.5t30 -87.5q0 -55 -33 -89t-84 -34q-49 -1 -80 32q-29 33 -28 89z" />
<glyph unicode="&#xc5;" horiz-adv-x="1484" d="M10 0v123l168 39l467 1261q-133 58 -133 205q0 104 71.5 170t164.5 66q94 0 164.5 -60.5t70.5 -148.5q0 -168 -131 -228l453 -1265l170 -39v-123h-594v123l190 39l-78 227h-532l-80 -227l192 -39v-123h-563zM516 553h422l-207 616zM635 1632q0 -127 113 -127 q49 0 80.5 35t31.5 94q0 127 -112 127q-49 0 -81 -35t-32 -94z" />
<glyph unicode="&#xc6;" horiz-adv-x="1964" d="M10 0v123l183 41l567 1106l-174 41v112l258 11h977v-349h-133l-52 185h-438v-441h469v-163h-469v-502h469l41 205h133v-369h-1042v123l184 41v256h-451l-129 -262l160 -35v-123h-553zM614 584h369v686h-31z" />
<glyph unicode="&#xc7;" horiz-adv-x="1320" d="M82 696q0 172 48 311.5t138 239t216 153.5t284 54q47 0 103.5 -7t110.5 -19.5t102.5 -25.5t78.5 -26l66 -24l-10 -346h-154l-55 233q-111 41 -262 41q-209 0 -320 -149.5t-111 -425.5q0 -274 120 -407.5t321 -133.5q45 0 97 12t101.5 29.5t90 39t67.5 42.5l53 41l82 -133 q-37 -37 -84 -71t-101 -62.5t-113.5 -48t-121.5 -27.5v-76q174 -31 175 -182q0 -41 -18.5 -74t-49.5 -55.5t-68 -36t-73 -13.5q-66 -2 -122.5 12.5t-103.5 37.5l-30 14l53 86q98 -47 153 -47q115 0 115 82q0 47 -44 74.5t-120 27.5v146q-295 12 -454.5 191t-159.5 523z" />
<glyph unicode="&#xc8;" horiz-adv-x="1280" d="M123 0v123l174 41v1106l-174 41v112l389 11h625v-349h-133l-52 185h-440v-441h471v-163h-471v-502h471l41 205h133v-369h-1034zM357 1761l102 154l379 -297l-82 -113z" />
<glyph unicode="&#xc9;" horiz-adv-x="1280" d="M123 0v123l174 41v1106l-174 41v112l389 11h625v-349h-133l-52 185h-440v-441h471v-163h-471v-502h471l41 205h133v-369h-1034zM491 1618l379 297l103 -154l-400 -256z" />
<glyph unicode="&#xca;" horiz-adv-x="1280" d="M123 0v123l174 41v1106l-174 41v112l389 11h625v-349h-133l-52 185h-440v-441h471v-163h-471v-502h471l41 205h133v-369h-1034zM297 1628l297 246l123 10l297 -256l-82 -92l-272 191l-281 -191z" />
<glyph unicode="&#xcb;" horiz-adv-x="1280" d="M123 0v123l174 41v1106l-174 41v112l389 11h625v-349h-133l-52 185h-440v-441h471v-163h-471v-502h471l41 205h133v-369h-1034zM328 1688q0 55 31.5 89.5t82.5 34.5t81 -34.5t30 -87.5q0 -55 -32.5 -89t-84.5 -34q-49 -1 -80 32q-29 33 -28 89zM748 1688q0 55 31.5 89.5 t82.5 34.5t81 -34.5t30 -87.5q0 -55 -33 -89t-84 -34q-49 -1 -80 32q-29 33 -28 89z" />
<glyph unicode="&#xcc;" horiz-adv-x="727" d="M41 1761l102 154l379 -297l-82 -113zM82 0v123l174 41v1106l-174 41v112l563 11v-123l-174 -41v-1106l174 -41v-123h-563z" />
<glyph unicode="&#xcd;" horiz-adv-x="727" d="M82 0v123l174 41v1106l-174 41v112l563 11v-123l-174 -41v-1106l174 -41v-123h-563zM194 1618l379 297l103 -154l-400 -256z" />
<glyph unicode="&#xce;" horiz-adv-x="727" d="M18 1628l283 246l123 10l283 -256l-82 -92l-258 190l-267 -190zM86 0v123l174 41v1106l-174 41v112l563 11v-123l-174 -41v-1106l174 -41v-123h-563z" />
<glyph unicode="&#xcf;" horiz-adv-x="727" d="M43 1688q0 55 31.5 89.5t82.5 34.5t81 -34.5t30 -87.5q0 -55 -32.5 -89t-84.5 -34q-49 -1 -80 32q-29 33 -28 89zM82 0v123l174 41v1106l-174 41v112l563 11v-123l-174 -41v-1106l174 -41v-123h-563zM463 1688q0 55 31.5 89.5t82.5 34.5t81 -34.5t30 -87.5q0 -55 -33 -89 t-84 -34q-49 -1 -80 32q-29 33 -28 89z" />
<glyph unicode="&#xd0;" horiz-adv-x="1501" d="M123 0v123l174 41v512h-174v162h174v432l-174 41v112l389 11h262q152 0 271.5 -46.5t202.5 -135.5t127 -219t44 -298t-48 -303t-136 -231.5t-213 -148.5t-279 -52h-620zM510 164h244q203 0 316.5 139t113.5 420q0 283 -110.5 415t-309.5 132h-254v-432h319v-162h-319 v-512z" />
<glyph unicode="&#xd1;" horiz-adv-x="1617" d="M82 0v123l174 41v1106l-174 41v112l430 11l676 -1145v981l-174 41v112l532 11v-123l-174 -41v-1270h-256l-676 1128v-964l195 -41v-123h-553zM412 1640q37 86 98 139.5t131 53.5q41 0 81 -12.5t91 -33t92 -35t68 -14.5q49 0 81.5 21.5t47.5 44.5l16 20l72 -71 q-8 -25 -28.5 -55.5t-49.5 -64.5t-63.5 -49.5t-77.5 -15.5q-35 0 -83 13.5t-97.5 33t-88.5 32t-65 12.5q-47 -2 -84 -23.5t-53 -44.5l-17 -23z" />
<glyph unicode="&#xd2;" horiz-adv-x="1546" d="M123 700q0 172 46 311.5t134 239t210 151.5t271 52q150 0 268.5 -50t201.5 -144.5t126 -227.5t43 -299t-49 -304t-138 -237.5t-214 -155.5t-277 -56q-301 0 -461.5 186t-160.5 534zM358 717q0 -563 400 -563q205 0 317.5 143t112.5 430q0 553 -410 553q-420 0 -420 -563z M482 1761l102 154l379 -297l-82 -113z" />
<glyph unicode="&#xd3;" horiz-adv-x="1546" d="M123 700q0 172 46 311.5t134 239t210 151.5t271 52q150 0 268.5 -50t201.5 -144.5t126 -227.5t43 -299t-49 -304t-138 -237.5t-214 -155.5t-277 -56q-301 0 -461.5 186t-160.5 534zM358 717q0 -563 400 -563q205 0 317.5 143t112.5 430q0 553 -410 553q-420 0 -420 -563z M563 1618l379 297l103 -154l-400 -256z" />
<glyph unicode="&#xd4;" horiz-adv-x="1546" d="M123 700q0 172 46 311.5t134 239t210 151.5t271 52q150 0 268.5 -50t201.5 -144.5t126 -227.5t43 -299t-49 -304t-138 -237.5t-214 -155.5t-277 -56q-301 0 -461.5 186t-160.5 534zM358 717q0 -563 400 -563q205 0 317.5 143t112.5 430q0 553 -410 553q-420 0 -420 -563z M405 1628l297 246l123 10l297 -256l-82 -92l-272 191l-281 -191z" />
<glyph unicode="&#xd5;" horiz-adv-x="1546" d="M123 700q0 172 46 311.5t134 239t210 151.5t271 52q150 0 268.5 -50t201.5 -144.5t126 -227.5t43 -299t-49 -304t-138 -237.5t-214 -155.5t-277 -56q-301 0 -461.5 186t-160.5 534zM358 717q0 -563 400 -563q205 0 317.5 143t112.5 430q0 553 -410 553q-420 0 -420 -563z M385 1720q37 86 98 139.5t131 53.5q41 0 81 -12.5t91 -33t92 -35t68 -14.5q49 0 81.5 21.5t47.5 44.5l16 20l72 -71q-8 -25 -28.5 -55.5t-49.5 -64.5t-63.5 -49.5t-77.5 -15.5q-35 0 -83 13.5t-97.5 33t-88.5 32t-65 12.5q-47 -2 -84 -23.5t-53 -44.5l-17 -23z" />
<glyph unicode="&#xd6;" horiz-adv-x="1546" d="M123 700q0 172 46 311.5t134 239t210 151.5t271 52q150 0 268.5 -50t201.5 -144.5t126 -227.5t43 -299t-49 -304t-138 -237.5t-214 -155.5t-277 -56q-301 0 -461.5 186t-160.5 534zM358 717q0 -563 400 -563q205 0 317.5 143t112.5 430q0 553 -410 553q-420 0 -420 -563z M451 1688q0 55 31.5 89.5t82.5 34.5t81 -34.5t30 -87.5q0 -55 -32.5 -89t-84.5 -34q-49 -1 -80 32q-29 33 -28 89zM871 1688q0 55 31.5 89.5t82.5 34.5t81 -34.5t30 -87.5q0 -55 -33 -89t-84 -34q-49 -1 -80 32q-29 33 -28 89z" />
<glyph unicode="&#xd7;" horiz-adv-x="1228" d="M123 166l377 377l-377 377l115 114l376 -377l377 377l115 -114l-377 -377l377 -377l-115 -115l-377 377l-376 -377z" />
<glyph unicode="&#xd8;" horiz-adv-x="1546" d="M123 707q0 170 47 308t134 235.5t210 150.5t274 53q164 0 299 -65l132 219l133 -72l-140 -231q211 -193 211 -551q0 -176 -49 -318.5t-138 -244t-214 -156.5t-274 -55q-172 0 -297 61l-154 -256l-133 72l162 268q-203 184 -203 582zM358 717q0 -252 84 -398l547 908 q-90 53 -211 53q-420 0 -420 -563zM551 207q84 -53 207 -53q207 0 318.5 143t111.5 412q0 270 -88 409z" />
<glyph unicode="&#xd9;" horiz-adv-x="1617" d="M82 1311v112l584 11v-123l-195 -41v-717q0 -225 78 -312t264 -87t260 95t74 335v686l-195 41v112l584 11v-123l-174 -41v-686q0 -301 -127 -452.5t-428 -151.5t-426 140t-125 433v717zM482 1761l102 154l379 -297l-82 -113z" />
<glyph unicode="&#xda;" horiz-adv-x="1617" d="M82 1311v112l584 11v-123l-195 -41v-717q0 -225 78 -312t264 -87t260 95t74 335v686l-195 41v112l584 11v-123l-174 -41v-686q0 -301 -127 -452.5t-428 -151.5t-426 140t-125 433v717zM653 1618l379 297l103 -154l-400 -256z" />
<glyph unicode="&#xdb;" horiz-adv-x="1617" d="M82 1311v112l584 11v-123l-195 -41v-717q0 -225 78 -312t264 -87t260 95t74 335v686l-195 41v112l584 11v-123l-174 -41v-686q0 -301 -127 -452.5t-428 -151.5t-426 140t-125 433v717zM448 1628l297 246l123 10l297 -256l-82 -92l-272 191l-281 -191z" />
<glyph unicode="&#xdc;" horiz-adv-x="1617" d="M82 1311v112l584 11v-123l-195 -41v-717q0 -225 78 -312t264 -87t260 95t74 335v686l-195 41v112l584 11v-123l-174 -41v-686q0 -301 -127 -452.5t-428 -151.5t-426 140t-125 433v717zM471 1688q0 55 31.5 89.5t82.5 34.5t81 -34.5t30 -87.5q0 -55 -32.5 -89t-84.5 -34 q-49 -1 -80 32q-29 33 -28 89zM891 1688q0 55 31.5 89.5t82.5 34.5t81 -34.5t30 -87.5q0 -55 -33 -89t-84 -34q-49 -1 -80 32q-29 33 -28 89z" />
<glyph unicode="&#xdd;" horiz-adv-x="1320" d="M20 1311v112l512 11v-123l-139 -41l273 -574l301 574l-158 41v112l491 11v-123l-126 -37l-406 -739v-371l174 -41v-123h-563v123l174 41v366l-395 742zM553 1618l379 297l103 -154l-400 -256z" />
<glyph unicode="&#xde;" horiz-adv-x="1239" d="M82 0v123l174 41v1106l-174 41v112l563 11v-123l-174 -41v-113h215q221 0 346 -100.5t125 -278.5q0 -223 -140 -342t-403 -119h-143v-153l174 -41v-123h-563zM471 481h143q162 0 250 68.5t88 187.5q0 121 -73.5 188.5t-202.5 67.5h-205v-512z" />
<glyph unicode="&#xdf;" horiz-adv-x="1558" d="M143 922v133l226 20v113q0 193 118.5 301t329.5 108q104 0 191.5 -19t150 -58t97 -99.5t34.5 -140.5t-42 -146.5t-93 -105.5q-133 -102 -133 -188q0 -53 35 -89t88 -65t113.5 -54.5t113.5 -64.5t88 -95t35 -142q0 -76 -36 -140.5t-94 -110.5t-135 -72.5t-159 -26.5 q-78 2 -143.5 8t-120.5 24l-37 13v294h131l31 -165q41 -20 119 -21q102 0 165.5 41t63.5 115q0 57 -35 93t-87 63.5t-113.5 53t-113.5 62.5t-87 91.5t-35 138.5q0 63 16.5 108t43 79t57 59.5t61.5 47.5q98 74 98 175q0 49 -20.5 84.5t-56 57t-83.5 32t-104 10.5 q-111 0 -179.5 -58.5t-68.5 -156.5v-1229h-378v113l174 51v758h-226z" />
<glyph unicode="&#xe0;" d="M92 287q0 317 471 317h164v164q0 184 -195 184q-111 0 -182 -22l-24 -8l-29 -154h-133l-10 256q221 82 405 82q180 0 276.5 -72.5t96.5 -245.5v-624l164 -41v-113l-318 -10l-43 143q-164 -164 -323 -163q-160 0 -240 79.5t-80 227.5zM276 1487l103 154l399 -318l-72 -102 zM301 307q0 -80 38 -122t110 -42q35 0 70.5 12.5t69.5 31t60.5 40t42.5 39.5l35 41v164h-143q-154 0 -218.5 -40t-64.5 -124z" />
<glyph unicode="&#xe1;" d="M92 287q0 317 471 317h164v164q0 184 -195 184q-111 0 -182 -22l-24 -8l-29 -154h-133l-10 256q221 82 405 82q180 0 276.5 -72.5t96.5 -245.5v-624l164 -41v-113l-318 -10l-43 143q-164 -164 -323 -163q-160 0 -240 79.5t-80 227.5zM301 307q0 -80 38 -122t110 -42 q35 0 70.5 12.5t69.5 31t60.5 40t42.5 39.5l35 41v164h-143q-154 0 -218.5 -40t-64.5 -124zM325 1323l400 318l102 -154l-430 -266z" />
<glyph unicode="&#xe2;" d="M92 287q0 317 471 317h164v164q0 184 -195 184q-111 0 -182 -22l-24 -8l-29 -154h-133l-10 256q221 82 405 82q180 0 276.5 -72.5t96.5 -245.5v-624l164 -41v-113l-318 -10l-43 143q-164 -164 -323 -163q-160 0 -240 79.5t-80 227.5zM164 1325l307 276l123 10l307 -286 l-82 -93l-282 222l-291 -222zM301 307q0 -80 38 -122t110 -42q35 0 70.5 12.5t69.5 31t60.5 40t42.5 39.5l35 41v164h-143q-154 0 -218.5 -40t-64.5 -124z" />
<glyph unicode="&#xe3;" d="M92 287q0 317 471 317h164v164q0 184 -195 184q-111 0 -182 -22l-24 -8l-29 -154h-133l-10 256q221 82 405 82q180 0 276.5 -72.5t96.5 -245.5v-624l164 -41v-113l-318 -10l-43 143q-164 -164 -323 -163q-160 0 -240 79.5t-80 227.5zM150 1372q37 86 98 139.5t131 53.5 q41 0 81 -12.5t91 -33t92 -35t68 -14.5q49 0 81.5 21.5t47.5 44.5l16 20l72 -71q-8 -25 -28.5 -55.5t-49.5 -64.5t-63.5 -49.5t-77.5 -15.5q-35 0 -83 13.5t-97.5 33t-88.5 32t-65 12.5q-47 -2 -84 -23.5t-53 -44.5l-17 -23zM301 307q0 -80 38 -122t110 -42q35 0 70.5 12.5 t69.5 31t60.5 40t42.5 39.5l35 41v164h-143q-154 0 -218.5 -40t-64.5 -124z" />
<glyph unicode="&#xe4;" d="M92 287q0 317 471 317h164v164q0 184 -195 184q-111 0 -182 -22l-24 -8l-29 -154h-133l-10 256q221 82 405 82q180 0 276.5 -72.5t96.5 -245.5v-624l164 -41v-113l-318 -10l-43 143q-164 -164 -323 -163q-160 0 -240 79.5t-80 227.5zM215 1432q0 55 31.5 89.5t82.5 34.5 t81 -34.5t30 -87.5q0 -55 -32.5 -89t-84.5 -34q-49 -1 -80 32q-29 33 -28 89zM301 307q0 -80 38 -122t110 -42q35 0 70.5 12.5t69.5 31t60.5 40t42.5 39.5l35 41v164h-143q-154 0 -218.5 -40t-64.5 -124zM635 1432q0 55 31.5 89.5t82.5 34.5t81 -34.5t30 -87.5 q0 -55 -33 -89t-84 -34q-49 -1 -80 32q-29 33 -28 89z" />
<glyph unicode="&#xe5;" d="M92 287q0 317 471 317h164v164q0 184 -195 184q-111 0 -182 -22l-24 -8l-29 -154h-133l-10 256q221 82 405 82q180 0 276.5 -72.5t96.5 -245.5v-624l164 -41v-113l-318 -10l-43 143q-164 -164 -323 -163q-160 0 -240 79.5t-80 227.5zM301 307q0 -80 38 -122t110 -42 q35 0 70.5 12.5t69.5 31t60.5 40t42.5 39.5l35 41v164h-143q-154 0 -218.5 -40t-64.5 -124zM342 1444q0 53 20.5 97t54 75t76.5 47t86 16t85 -15t75 -45t53.5 -72t20.5 -93q0 -55 -21.5 -98t-55.5 -74t-77 -47t-86 -16q-90 0 -162 59q-70 61 -69 166zM465 1448 q0 -127 112 -127q49 0 81 35t32 94q0 127 -113 127q-49 0 -80.5 -35t-31.5 -94z" />
<glyph unicode="&#xe6;" horiz-adv-x="1710" d="M92 287q0 317 471 317h164v164q0 184 -195 184q-111 0 -182 -22l-24 -8l-29 -154h-133l-10 256q221 82 399 82q246 0 319 -143q131 143 336 143q430 0 430 -481l-10 -109l-706 -4q0 -168 80.5 -268.5t216.5 -100.5q45 0 90 8.5t85 20.5t72.5 27.5t55.5 29.5l41 27 l71 -106q-70 -55 -128 -84t-137 -57.5t-171 -28.5q-291 0 -403 217q-14 -18 -48 -55.5t-85.5 -73t-117 -62t-145.5 -26.5q-147 0 -227 79.5t-80 227.5zM297 307q0 -90 46 -127t101 -37q51 0 96.5 18.5t79 44t57 51.5t36.5 42l14 18v154h-143q-154 0 -220.5 -39t-66.5 -125z M930 666h491q0 125 -53 202.5t-172 77.5q-117 0 -186.5 -78.5t-79.5 -201.5z" />
<glyph unicode="&#xe7;" horiz-adv-x="1044" d="M82 543q0 123 38 226t107.5 178t168 117t218.5 42q41 0 84 -6t84 -14.5t76 -19.5t60 -22l45 -20l-11 -276h-133l-31 174q-80 20 -184 20q-147 0 -227 -94t-80 -293t84 -305.5t233 -106.5q43 0 85 8.5t80 21.5t69 29.5t49 33.5l35 30l72 -123q-29 -25 -71 -51t-90 -49 t-97.5 -39t-90.5 -20v-74q82 -16 130.5 -63.5t48.5 -120.5q0 -37 -17.5 -70t-46.5 -55.5t-65.5 -36t-73.5 -13.5q-135 0 -221 43l-29 15l49 84q92 -43 154 -43q117 0 116 84q0 47 -46 75.5t-122 28.5v146q-223 16 -336.5 161.5t-113.5 397.5z" />
<glyph unicode="&#xe8;" horiz-adv-x="1085" d="M82 526q0 127 37 233.5t103.5 183.5t158.5 120t203 43q430 0 430 -481l-10 -109l-707 -4q0 -168 81 -268.5t216 -100.5q45 0 90 8.5t85 20.5t72.5 27.5t55.5 29.5l41 27l72 -106q-70 -55 -128.5 -87t-137 -57.5t-171.5 -25.5q-242 0 -366.5 146t-124.5 400zM276 1487 l103 154l399 -318l-72 -102zM305 666h492q0 125 -53.5 202.5t-172.5 77.5q-117 0 -186.5 -78.5t-79.5 -201.5z" />
<glyph unicode="&#xe9;" horiz-adv-x="1085" d="M82 526q0 127 37 233.5t103.5 183.5t158.5 120t203 43q430 0 430 -481l-10 -109l-707 -4q0 -168 81 -268.5t216 -100.5q45 0 90 8.5t85 20.5t72.5 27.5t55.5 29.5l41 27l72 -106q-70 -55 -128.5 -87t-137 -57.5t-171.5 -25.5q-242 0 -366.5 146t-124.5 400zM305 666h492 q0 125 -53.5 202.5t-172.5 77.5q-117 0 -186.5 -78.5t-79.5 -201.5zM358 1323l400 318l102 -154l-430 -266z" />
<glyph unicode="&#xea;" horiz-adv-x="1085" d="M82 526q0 127 37 233.5t103.5 183.5t158.5 120t203 43q430 0 430 -481l-10 -109l-707 -4q0 -168 81 -268.5t216 -100.5q45 0 90 8.5t85 20.5t72.5 27.5t55.5 29.5l41 27l72 -106q-70 -55 -128.5 -87t-137 -57.5t-171.5 -25.5q-242 0 -366.5 146t-124.5 400zM184 1323 l307 276l123 10l307 -286l-82 -93l-282 222l-291 -222zM305 666h492q0 125 -53.5 202.5t-172.5 77.5q-117 0 -186.5 -78.5t-79.5 -201.5z" />
<glyph unicode="&#xeb;" horiz-adv-x="1085" d="M82 526q0 127 37 233.5t103.5 183.5t158.5 120t203 43q430 0 430 -481l-10 -109l-707 -4q0 -168 81 -268.5t216 -100.5q45 0 90 8.5t85 20.5t72.5 27.5t55.5 29.5l41 27l72 -106q-70 -55 -128.5 -87t-137 -57.5t-171.5 -25.5q-242 0 -366.5 146t-124.5 400zM236 1432 q0 55 31.5 89.5t82.5 34.5t81 -34.5t30 -87.5q0 -55 -32.5 -89t-84.5 -34q-49 -1 -80 32q-29 33 -28 89zM305 666h492q0 125 -53.5 202.5t-172.5 77.5q-117 0 -186.5 -78.5t-79.5 -201.5zM656 1432q0 55 31.5 89.5t82.5 34.5t81 -34.5t30 -87.5q0 -55 -33 -89t-84 -34 q-49 -1 -80 32q-29 33 -28 89z" />
<glyph unicode="&#xec;" horiz-adv-x="686" d="M33 1487l103 154l399 -318l-72 -102zM82 0v113l174 51v758l-174 41v112l379 10v-921l153 -51v-113h-532z" />
<glyph unicode="&#xed;" horiz-adv-x="686" d="M82 0v113l174 51v758l-174 41v112l379 10v-921l153 -51v-113h-532zM133 1341l400 318l102 -154l-430 -266z" />
<glyph unicode="&#xee;" horiz-adv-x="686" d="M-10 1321l286 276l123 11l287 -287l-82 -92l-262 221l-270 -221zM82 0v113l174 51v758l-174 41v112l379 10v-921l153 -51v-113h-532z" />
<glyph unicode="&#xef;" horiz-adv-x="686" d="M31 1432q0 55 31.5 89.5t82.5 34.5t81 -34.5t30 -87.5q0 -55 -33 -89t-84 -34q-49 -1 -80 32q-29 33 -28 89zM82 0v113l174 51v758l-174 41v112l379 10v-921l153 -51v-113h-532zM430 1432q0 55 32 89.5t83 34.5t80.5 -34.5t29.5 -87.5q0 -55 -32.5 -89t-83.5 -34 q-49 -1 -80 32q-29 33 -29 89z" />
<glyph unicode="&#xf0;" horiz-adv-x="1218" d="M92 506q0 129 35 230.5t100.5 172t157.5 108.5t209 38q141 0 252 -86q-74 205 -230 331l-268 -143l-82 113l221 119q-92 51 -200 86l61 129q166 -41 303 -125l230 125l84 -115l-193 -105q324 -293 324 -841q0 -127 -37 -230.5t-104.5 -177.5t-162 -114.5t-210.5 -40.5 q-229 0 -359.5 134t-130.5 392zM307 512q0 -174 71 -271.5t218 -97.5t216 94.5t69 284.5q-1 369 -277 369q-297 0 -297 -379z" />
<glyph unicode="&#xf1;" horiz-adv-x="1361" d="M82 0v113l174 51v758l-174 41v112l338 10l18 -145q20 16 57 45t87.5 55.5t111 46t125.5 19.5q166 0 247 -97.5t81 -271.5v-573l153 -51v-113h-491v113l133 51v553q0 111 -43 163t-131 52q-43 0 -85 -11.5t-78 -30t-63.5 -40t-45.5 -41.5l-35 -41v-604l133 -51v-113h-512z M291 1372q37 86 98 139.5t131 53.5q41 0 81 -12.5t91 -33t92 -35t68 -14.5q49 0 81.5 21.5t47.5 44.5l16 20l72 -71q-8 -25 -28.5 -55.5t-49.5 -64.5t-63.5 -49.5t-77.5 -15.5q-35 0 -83 13.5t-97.5 33t-88.5 32t-65 12.5q-47 -2 -84 -23.5t-53 -44.5l-17 -23z" />
<glyph unicode="&#xf2;" horiz-adv-x="1167" d="M82 526q0 131 38 238.5t107.5 183.5t164.5 117t210 41q229 0 356 -145.5t127 -403.5q0 -127 -36.5 -232.5t-103 -182t-162 -119.5t-212.5 -43q-233 0 -361 139t-128 407zM297 543q0 -399 287 -400q150 0 218 102.5t68 307.5q0 389 -276 389q-297 0 -297 -399zM297 1487 l103 154l399 -318l-72 -102z" />
<glyph unicode="&#xf3;" horiz-adv-x="1167" d="M82 526q0 131 38 238.5t107.5 183.5t164.5 117t210 41q229 0 356 -145.5t127 -403.5q0 -127 -36.5 -232.5t-103 -182t-162 -119.5t-212.5 -43q-233 0 -361 139t-128 407zM297 543q0 -399 287 -400q150 0 218 102.5t68 307.5q0 389 -276 389q-297 0 -297 -399zM366 1323 l400 318l102 -154l-430 -266z" />
<glyph unicode="&#xf4;" horiz-adv-x="1167" d="M82 526q0 131 38 238.5t107.5 183.5t164.5 117t210 41q229 0 356 -145.5t127 -403.5q0 -127 -36.5 -232.5t-103 -182t-162 -119.5t-212.5 -43q-233 0 -361 139t-128 407zM225 1323l307 276l123 10l307 -286l-82 -93l-282 222l-291 -222zM297 543q0 -399 287 -400 q150 0 218 102.5t68 307.5q0 389 -276 389q-297 0 -297 -399z" />
<glyph unicode="&#xf5;" horiz-adv-x="1167" d="M82 526q0 131 38 238.5t107.5 183.5t164.5 117t210 41q229 0 356 -145.5t127 -403.5q0 -127 -36.5 -232.5t-103 -182t-162 -119.5t-212.5 -43q-233 0 -361 139t-128 407zM195 1372q37 86 98 139.5t131 53.5q41 0 81 -12.5t91 -33t92 -35t68 -14.5q49 0 81.5 21.5 t47.5 44.5l16 20l72 -71q-8 -25 -28.5 -55.5t-49.5 -64.5t-63.5 -49.5t-77.5 -15.5q-35 0 -83 13.5t-97.5 33t-88.5 32t-65 12.5q-47 -2 -84 -23.5t-53 -44.5l-17 -23zM297 543q0 -399 287 -400q150 0 218 102.5t68 307.5q0 389 -276 389q-297 0 -297 -399z" />
<glyph unicode="&#xf6;" horiz-adv-x="1167" d="M82 526q0 131 38 238.5t107.5 183.5t164.5 117t210 41q229 0 356 -145.5t127 -403.5q0 -127 -36.5 -232.5t-103 -182t-162 -119.5t-212.5 -43q-233 0 -361 139t-128 407zM256 1432q0 55 31.5 89.5t82.5 34.5t81 -34.5t30 -87.5q0 -55 -32.5 -89t-84.5 -34q-49 -1 -80 32 q-29 33 -28 89zM297 543q0 -399 287 -400q150 0 218 102.5t68 307.5q0 389 -276 389q-297 0 -297 -399zM676 1432q0 55 31.5 89.5t82.5 34.5t81 -34.5t30 -87.5q0 -55 -33 -89t-84 -34q-49 -1 -80 32q-29 33 -28 89z" />
<glyph unicode="&#xf7;" horiz-adv-x="1269" d="M102 461v164h1065v-164h-1065zM502 121q0 68 38 106.5t97 38.5t95 -38t36 -105q0 -66 -38 -104.5t-97 -38.5t-95 37.5t-36 103.5zM502 961q0 68 38 106.5t97 38.5t95 -38t36 -105q0 -66 -38 -105t-97 -39t-95 38t-36 104z" />
<glyph unicode="&#xf8;" horiz-adv-x="1187" d="M92 514q0 139 39 248.5t107.5 186.5t165 117t210.5 40q111 0 209 -41l129 215l123 -72l-133 -223q154 -145 154 -414q0 -133 -37 -242.5t-103.5 -187.5t-161 -119.5t-210.5 -41.5q-121 0 -219 38l-140 -233l-123 72l142 237q-152 141 -152 420zM307 543q0 -164 47 -262 l379 632q-61 29 -129 29q-297 0 -297 -399zM457 174q57 -31 137 -31q287 0 287 385q0 178 -47 277z" />
<glyph unicode="&#xf9;" horiz-adv-x="1331" d="M41 963v112l379 10v-718q0 -109 43 -161t131 -52t161.5 41t108.5 79l37 41v607l-174 41v112l379 10v-921l174 -41v-113l-338 -10l-20 143q-86 -76 -195 -119.5t-184 -43.5q-164 0 -246 96t-82 270v576zM358 1487l103 154l399 -318l-72 -102z" />
<glyph unicode="&#xfa;" horiz-adv-x="1331" d="M41 963v112l379 10v-718q0 -109 43 -161t131 -52t161.5 41t108.5 79l37 41v607l-174 41v112l379 10v-921l174 -41v-113l-338 -10l-20 143q-86 -76 -195 -119.5t-184 -43.5q-164 0 -246 96t-82 270v576zM440 1323l400 318l102 -154l-430 -266z" />
<glyph unicode="&#xfb;" horiz-adv-x="1331" d="M41 963v112l379 10v-718q0 -109 43 -161t131 -52t161.5 41t108.5 79l37 41v607l-174 41v112l379 10v-921l174 -41v-113l-338 -10l-20 143q-86 -76 -195 -119.5t-184 -43.5q-164 0 -246 96t-82 270v576zM297 1323l307 276l123 10l307 -286l-82 -93l-282 222l-291 -222z " />
<glyph unicode="&#xfc;" horiz-adv-x="1331" d="M41 963v112l379 10v-718q0 -109 43 -161t131 -52t161.5 41t108.5 79l37 41v607l-174 41v112l379 10v-921l174 -41v-113l-338 -10l-20 143q-86 -76 -195 -119.5t-184 -43.5q-164 0 -246 96t-82 270v576zM318 1432q0 55 31.5 89.5t82.5 34.5t81 -34.5t30 -87.5 q0 -55 -32.5 -89t-84.5 -34q-49 -1 -80 32q-29 33 -28 89zM738 1432q0 55 31.5 89.5t82.5 34.5t81 -34.5t30 -87.5q0 -55 -33 -89t-84 -34q-49 -1 -80 32q-29 33 -28 89z" />
<glyph unicode="&#xfd;" horiz-adv-x="1177" d="M20 963v112l482 10v-122l-144 -21l246 -717l225 707l-143 31v112l485 10v-122l-133 -21l-290 -811q-102 -268 -152 -356q-154 -264 -401 -267l-132 11l19 143h102q100 0 175 84t151 250l-367 936zM491 1323l400 318l102 -154l-430 -266z" />
<glyph unicode="&#xfe;" horiz-adv-x="1259" d="M51 1454v113l379 10v-594q23 23 58.5 44.5t76.5 38.5t83 28.5t79 11.5q217 0 328.5 -142.5t111.5 -404.5q0 -127 -33.5 -233.5t-103 -183t-173 -119.5t-243.5 -43q-45 0 -85 4t-74 16l-25 8v-325l215 -41v-113h-584v113l164 41v1730zM430 184q63 -41 215 -41 q307 0 307 410q0 180 -65.5 284.5t-200.5 104.5q-78 0 -146.5 -35.5t-109.5 -107.5v-615z" />
<glyph unicode="&#xff;" horiz-adv-x="1177" d="M20 963v112l482 10v-122l-144 -21l246 -717l225 707l-143 31v112l485 10v-122l-133 -21l-290 -811q-102 -268 -152 -356q-154 -264 -401 -267l-132 11l19 143h102q100 0 175 84t151 250l-367 936zM277 1432q0 55 31.5 89.5t82.5 34.5t81 -34.5t30 -87.5q0 -55 -32.5 -89 t-84.5 -34q-49 -1 -80 32q-29 33 -28 89zM697 1432q0 55 31.5 89.5t82.5 34.5t81 -34.5t30 -87.5q0 -55 -33 -89t-84 -34q-49 -1 -80 32q-29 33 -28 89z" />
<glyph unicode="&#x152;" horiz-adv-x="1925" d="M123 700q0 172 47 309.5t133 234.5t208.5 148.5t276.5 51.5l308 -10l676 10v-359h-134l-51 185h-440v-441h471v-163h-471v-502h471l41 205h133v-369h-717l-327 -10q-303 0 -464 182t-161 528zM358 717q0 -563 400 -563l174 10v1106q-47 4 -85 7t-69 3q-420 0 -420 -563z " />
<glyph unicode="&#x153;" horiz-adv-x="1873" d="M82 526q0 131 38 238.5t107.5 183.5t168 117t218.5 41q244 0 377 -213q129 213 381 213q430 0 430 -481l-10 -109l-707 -4q0 -168 81 -268.5t216 -100.5q45 0 90.5 8.5t85 20.5t72.5 27.5t56 29.5l40 27l72 -106q-70 -57 -128 -86t-137 -56.5t-171 -27.5q-268 0 -385 210 q-137 -211 -404 -210q-236 0 -363.5 139t-127.5 407zM297 543q0 -399 287 -400q297 0 297 410q0 180 -70 284.5t-217 104.5q-297 0 -297 -399zM1094 666h491q0 125 -53 202.5t-172 77.5q-117 0 -186.5 -78.5t-79.5 -201.5z" />
<glyph unicode="&#x178;" horiz-adv-x="1320" d="M20 1311v112l512 11v-123l-139 -41l273 -574l301 574l-158 41v112l491 11v-123l-126 -37l-406 -739v-371l174 -41v-123h-563v123l174 41v366l-395 742zM328 1688q0 55 31.5 89.5t82.5 34.5t81 -34.5t30 -87.5q0 -55 -32.5 -89t-84.5 -34q-49 -1 -80 32q-29 33 -28 89z M748 1688q0 55 31.5 89.5t82.5 34.5t81 -34.5t30 -87.5q0 -55 -33 -89t-84 -34q-49 -1 -80 32q-29 33 -28 89z" />
<glyph unicode="&#x2c6;" horiz-adv-x="1064" d="M174 1423l297 246l123 10l297 -256l-82 -92l-272 191l-281 -191z" />
<glyph unicode="&#x2dc;" d="M195 1372q37 86 98 139.5t131 53.5q41 0 81 -12.5t91 -33t92 -35t68 -14.5q49 0 81.5 21.5t47.5 44.5l16 20l72 -71q-8 -25 -28.5 -55.5t-49.5 -64.5t-63.5 -49.5t-77.5 -15.5q-35 0 -83 13.5t-97.5 33t-88.5 32t-65 12.5q-47 -2 -84 -23.5t-53 -44.5l-17 -23z" />
<glyph unicode="&#x2000;" horiz-adv-x="957" />
<glyph unicode="&#x2001;" horiz-adv-x="1915" />
<glyph unicode="&#x2002;" horiz-adv-x="957" />
<glyph unicode="&#x2003;" horiz-adv-x="1915" />
<glyph unicode="&#x2004;" horiz-adv-x="638" />
<glyph unicode="&#x2005;" horiz-adv-x="478" />
<glyph unicode="&#x2006;" horiz-adv-x="319" />
<glyph unicode="&#x2007;" horiz-adv-x="319" />
<glyph unicode="&#x2008;" horiz-adv-x="239" />
<glyph unicode="&#x2009;" horiz-adv-x="383" />
<glyph unicode="&#x200a;" horiz-adv-x="106" />
<glyph unicode="&#x2010;" horiz-adv-x="768" d="M123 471v174h532v-174h-532z" />
<glyph unicode="&#x2011;" horiz-adv-x="768" d="M123 471v174h532v-174h-532z" />
<glyph unicode="&#x2012;" horiz-adv-x="768" d="M123 471v174h532v-174h-532z" />
<glyph unicode="&#x2013;" horiz-adv-x="1024" d="M0 584v164h1024v-164h-1024z" />
<glyph unicode="&#x2014;" horiz-adv-x="1986" d="M0 584v164h1987v-164h-1987z" />
<glyph unicode="&#x2018;" horiz-adv-x="573" d="M133 1167q0 180 236 430l92 -77q-109 -145 -109 -217q0 -12 7.5 -27.5t17.5 -37t16 -47.5t6 -48q0 -49 -37 -88t-96 -39q-133 0 -133 151z" />
<glyph unicode="&#x2019;" horiz-adv-x="573" d="M113 1094q109 145 108 217q0 12 -7 26.5t-16.5 37t-16.5 47t-7 48.5q0 49 37 88t96 39q133 0 133 -151q0 -180 -235 -430z" />
<glyph unicode="&#x201a;" horiz-adv-x="573" d="M113 -279q109 145 108 218q0 6 -6 23.5t-17.5 40t-17.5 47t-6 48.5q0 49 37 88t96 39q133 0 133 -151q0 -180 -235 -430z" />
<glyph unicode="&#x201c;" horiz-adv-x="972" d="M133 1167q0 180 236 430l92 -77q-109 -145 -109 -217q0 -12 7.5 -27.5t17.5 -37t16 -47.5t6 -48q0 -49 -37 -88t-96 -39q-133 0 -133 151zM532 1167q0 180 236 430l92 -77q-109 -145 -108 -217q0 -12 7 -27.5t17 -37t16.5 -47.5t6.5 -48q0 -49 -37 -88t-96 -39 q-133 0 -134 151z" />
<glyph unicode="&#x201d;" horiz-adv-x="972" d="M113 1094q109 145 108 217q0 10 -6 25.5t-17.5 38t-17.5 47t-6 48.5q0 49 37 88t96 39q133 0 133 -151q0 -180 -235 -430zM512 1094q109 145 109 217q0 10 -6.5 25.5t-17.5 38t-17.5 47t-6.5 48.5q0 49 37 88t97 39q133 0 133 -151q0 -180 -236 -430z" />
<glyph unicode="&#x201e;" horiz-adv-x="972" d="M113 -279q109 145 108 218q0 6 -6 23.5t-17.5 40t-17.5 47t-6 48.5q0 49 37 88t96 39q133 0 133 -151q0 -180 -235 -430zM512 -279q109 145 109 218q0 6 -7.5 23.5t-17.5 40t-16.5 47t-6.5 48.5q0 49 37 88t97 39q133 0 133 -151q0 -180 -236 -430z" />
<glyph unicode="&#x2022;" horiz-adv-x="1034" d="M174 645q0 68 25.5 127t70.5 103.5t104.5 71t127.5 26.5t127 -26.5t103 -71t70.5 -103.5t26.5 -127t-26.5 -127t-70.5 -104t-103.5 -71t-126.5 -26q-136 1 -232 97t-96 231z" />
<glyph unicode="&#x2026;" horiz-adv-x="1474" d="M113 121q0 68 37.5 106.5t97.5 38.5q59 0 95 -38t36 -105q0 -66 -38 -104.5t-97 -38.5t-95 37.5t-36 103.5zM604 121q0 68 38 106.5t97 38.5t95 -38t36 -105q0 -66 -38 -104.5t-97 -38.5t-95 37.5t-36 103.5zM1096 121q0 68 37.5 106.5t97.5 38.5q59 0 95 -38t36 -105 q0 -66 -38 -104.5t-97 -38.5t-95 37.5t-36 103.5z" />
<glyph unicode="&#x202f;" horiz-adv-x="383" />
<glyph unicode="&#x2039;" horiz-adv-x="645" d="M113 481v123l297 328l122 -82l-235 -307l235 -307l-122 -82z" />
<glyph unicode="&#x203a;" horiz-adv-x="645" d="M123 236l235 307l-235 307l123 82l297 -328v-123l-297 -327z" />
<glyph unicode="&#x205f;" horiz-adv-x="478" />
<glyph unicode="&#x20ac;" horiz-adv-x="1286" d="M31 492h153q2 -20 11.5 -77t39 -127.5t89 -141t163.5 -119.5q51 -25 105.5 -36t107.5 -11q104 0 183.5 18t138.5 48t162 108l20 20l-82 123q-53 -43 -102 -66.5t-116.5 -48t-147.5 -24.5q-98 2 -163 37.5t-99.5 86t-55 106.5t-26.5 104h499v143h-880v-143zM31 778v144 h145q23 117 67 215t109.5 163.5t165.5 109.5t227 44q113 0 211.5 -20.5t147.5 -40.5l49 -21l-10 -285h-133l-27 164q-98 39 -256 39q-78 0 -134 -31.5t-93 -84t-59.5 -119t-32.5 -133.5h503v-144h-880z" />
<glyph unicode="&#x2122;" horiz-adv-x="1949" d="M82 1178v256h706v-256h-98l-24 139h-152v-543l133 -26v-93h-424v93l133 26v543h-151l-25 -139h-98zM872 655v93l107 26v543l-107 20v90l285 7l197 -392l202 385l271 7v-93l-103 -24v-543l103 -26v-93h-359v93l117 26v445l-190 -342l-105 -13l-182 344v-434l127 -26v-93 h-363z" />
<glyph unicode="&#x25fc;" horiz-adv-x="1085" d="M0 0v1085h1085v-1085h-1085z" />
<glyph unicode="&#xfb01;" horiz-adv-x="1464" d="M143 922v133l185 20v103q0 211 114.5 315t356.5 104q96 0 198.5 -17t157.5 -36l53 -16v-248h-164l-30 147q-92 16 -205 17q-276 0 -277 -225v-144l707 10v-921l154 -51v-113h-512v113l153 51v758h-502v-758l168 -51v-113h-546v113l174 51v758h-185z" />
<glyph unicode="&#xfb02;" horiz-adv-x="1550" d="M143 922v133l185 20v123q0 190 114.5 294.5t315.5 104.5q174 0 407 -16l78 -4v-1413l150 -51v-113h-512v113l153 51v1259q-143 20 -250 21q-115 0 -183.5 -56.5t-68.5 -148.5v-164h271l-6 -153h-265v-758l168 -51v-113h-546v113l174 51v758h-185z" />
</font>
</defs>
</svg>
