<?xml version="1.0" standalone="no"?>
<!DOCTYPE svg PUBLIC "-//W3C//DTD SVG 1.1//EN" "http://www.w3.org/Graphics/SVG/1.1/DTD/svg11.dtd" >
<svg xmlns="http://www.w3.org/2000/svg">
<metadata></metadata>
<defs>
<font id="bitterbold" horiz-adv-x="1212" >
<font-face units-per-em="2048" ascent="1638" descent="-410" />
<missing-glyph horiz-adv-x="481" />
<glyph horiz-adv-x="2048" />
<glyph horiz-adv-x="2048" />
<glyph unicode="&#xd;" horiz-adv-x="681" />
<glyph unicode=" "  horiz-adv-x="481" />
<glyph unicode="&#x09;" horiz-adv-x="481" />
<glyph unicode="&#xa0;" horiz-adv-x="481" />
<glyph unicode="!" horiz-adv-x="696" d="M174 160q0 84 52.5 134t123.5 50q84 0 128 -48t44 -136q0 -86 -52 -136.5t-126 -50.5q-170 1 -170 187zM186 1567h320l-37 -1032l-246 -11z" />
<glyph unicode="&#x22;" horiz-adv-x="903" d="M117 1024v578h276l-45 -578h-231zM528 1024v578h279l-47 -578h-232z" />
<glyph unicode="#" horiz-adv-x="1495" d="M123 289v211h217l35 252h-201v211h227l37 266h260l-36 -266h258l34 266h260l-34 -266h192v-211h-221l-33 -252h203v-211h-231l-37 -289h-260l36 289h-256l-38 -289h-261l39 289h-190zM600 500h258l33 252h-256z" />
<glyph unicode="$" horiz-adv-x="1130" d="M113 43v363h188l31 -154q70 -37 178 -37q98 0 163.5 38t65.5 107q0 43 -34.5 76t-90 54.5t-122 43t-133 53t-122 73.5t-90 115t-34.5 167q0 156 94 254t254 129v242h219v-234q78 -6 158 -24.5t120 -34.5l41 -14l-8 -336h-176l-39 151q-86 31 -164 31q-96 0 -147 -36 t-51 -93q0 -59 64.5 -99t155.5 -70t183 -71t156.5 -125t64.5 -206q0 -166 -97 -273.5t-261 -142.5v-289h-219v276q-84 4 -171 20.5t-132 31.5z" />
<glyph unicode="%" horiz-adv-x="1914" d="M113 1083q0 178 104.5 281.5t263.5 103.5q156 0 251 -94t95 -268q0 -176 -104.5 -282.5t-265.5 -106.5q-158 0 -251 91t-93 275zM348 1092q0 -197 119 -197q125 0 125 203q0 195 -121 194q-123 1 -123 -200zM367 -16l856 1474h297l-856 -1474h-297zM1063 338 q0 178 104.5 281.5t264.5 103.5q156 0 251 -94t95 -269q0 -176 -104.5 -282.5t-266.5 -106.5q-158 0 -251 91.5t-93 275.5zM1298 346q0 -197 119 -196q125 0 125 202q0 195 -121 195q-123 0 -123 -201z" />
<glyph unicode="&#x26;" horiz-adv-x="1386" d="M113 385q0 76 31.5 144.5t79.5 113.5t83 70.5t66 40.5q-106 66 -150 120q-68 88 -67 203q0 190 138 290.5t378 100.5q106 0 229 -30.5t174 -55.5l-10 -323h-193q-14 55 -32 133q-70 27 -185 27q-94 0 -144 -47.5t-50 -114.5q0 -88 68.5 -137.5t166.5 -49.5h629v-174 l-143 -47v-217q0 -213 -148.5 -335t-402.5 -122q-260 0 -389 111t-129 299zM430 428q0 -96 59.5 -149.5t161.5 -53.5q109 0 171.5 61.5t62.5 174.5v188h-154q-133 0 -217 -55t-84 -166z" />
<glyph unicode="'" horiz-adv-x="491" d="M117 1024v578h276l-45 -578h-231z" />
<glyph unicode="(" horiz-adv-x="722" d="M111 573q0 283 82 515.5t258 488.5h266q-147 -225 -233.5 -491.5t-86.5 -507.5q0 -266 85 -551t233 -498h-264q-178 252 -259 494.5t-81 549.5z" />
<glyph unicode=")" horiz-adv-x="716" d="M-2 1577h266q176 -256 258 -488.5t82 -515.5q0 -307 -81 -550.5t-259 -493.5h-264q147 213 232 497.5t85 551.5q0 242 -86 508t-233 491z" />
<glyph unicode="*" horiz-adv-x="847" d="M45 1174l61 182l236 -92l-29 243l191 4l-19 -249l228 100l63 -184l-250 -52l168 -194l-149 -113l-133 228l22 90l92 -11l-75 54l34 82l-73 -60l-70 62l37 -88l-80 -46l92 7l21 -90l-123 -228l-158 111l168 200z" />
<glyph unicode="+" horiz-adv-x="1269" d="M86 432v242h414v418h272v-418h410v-242h-410v-432h-272v432h-414z" />
<glyph unicode="," horiz-adv-x="620" d="M82 -272q123 164 123 245q0 25 -30 80.5t-30 108.5q0 82 50.5 132t126.5 50q78 0 125 -49t47 -139q0 -231 -283 -535z" />
<glyph unicode="-" horiz-adv-x="808" d="M117 430v256h579v-256h-579z" />
<glyph unicode="." horiz-adv-x="614" d="M133 160q0 84 52.5 134t123.5 50q84 0 128 -48t44 -136q0 -86 -51 -136.5t-125 -50.5q-84 0 -128 48.5t-44 138.5z" />
<glyph unicode="/" horiz-adv-x="1056" d="M41 0l682 1444h313l-684 -1444h-311z" />
<glyph unicode="0" horiz-adv-x="1320" d="M123 711q0 373 132 565t425 192t410.5 -179t117.5 -548q0 -768 -549 -768q-281 0 -408.5 185.5t-127.5 552.5zM455 721q0 -266 49 -379t163.5 -113t160.5 113t46 389q0 270 -45 375.5t-161.5 105.5t-164.5 -108.5t-48 -382.5z" />
<glyph unicode="1" horiz-adv-x="1101" d="M31 1133l487 311h262v-1208h277v-236h-881v236h287v880l-313 -201z" />
<glyph unicode="2" horiz-adv-x="1243" d="M82 0v250q160 129 244 198.5t185 163t148.5 151.5t80 124.5t32.5 126.5q0 94 -65.5 149.5t-174.5 55.5q-49 0 -96 -9.5t-71 -17.5l-23 -10l-20 -174h-216l-10 378q231 82 451 82q266 0 412.5 -93t146.5 -310q0 -104 -36 -200.5t-120 -200t-177 -192.5t-247 -222h615v-250 h-1059z" />
<glyph unicode="3" d="M51 86l86 225q184 -86 365 -86q125 0 192.5 53.5t67.5 155.5q0 94 -76 147.5t-215 53.5h-160v215h170q266 0 267 199q0 78 -59.5 124t-166.5 46q-45 0 -95 -7.5t-79 -15.5l-26 -8l-21 -164h-215l-10 358q252 86 456 86q527 1 527 -368q0 -131 -65.5 -222.5t-190.5 -123.5 q129 -29 208 -118t79 -206q0 -121 -50.5 -211t-135.5 -142t-186.5 -77t-215.5 -25q-117 0 -229.5 28t-166.5 54z" />
<glyph unicode="4" horiz-adv-x="1284" d="M31 532q571 842 641 943l342 -31v-901h205v-252h-205v-291h-316v291h-637zM338 543h364v540z" />
<glyph unicode="5" horiz-adv-x="1146" d="M35 86l88 225q184 -86 362 -86q102 0 168 54.5t66 150.5q0 115 -95.5 167t-285.5 52h-221l35 795h839l-6 -252h-543l-14 -307q297 0 464 -111.5t167 -312.5q0 -225 -159 -355.5t-382 -130.5q-123 0 -243.5 28t-180.5 54z" />
<glyph unicode="6" horiz-adv-x="1263" d="M106 604q0 387 196 625.5t572 238.5q53 0 99.5 -5t66.5 -9l19 -6l-15 -240q-61 10 -159 11q-123 0 -215 -42t-136.5 -101.5t-71 -119t-30.5 -100.5l-4 -43q145 88 320 88q197 0 323.5 -111.5t126.5 -318.5q0 -215 -153.5 -356.5t-385.5 -141.5q-264 0 -408.5 176.5 t-144.5 454.5zM420 539q0 -160 66.5 -237t170.5 -77q98 0 157.5 58.5t59.5 156.5q0 219 -221 219q-57 0 -115.5 -18t-86.5 -35l-31 -18v-49z" />
<glyph unicode="7" horiz-adv-x="1087" d="M10 997v447h1045v-221l-537 -1223h-338l531 1188h-453l-41 -191h-207z" />
<glyph unicode="8" horiz-adv-x="1265" d="M92 393q0 215 262 346q-215 121 -215 328q0 190 139.5 295.5t378.5 105.5q231 0 356.5 -106.5t125.5 -280.5q0 -203 -224 -307q258 -121 259 -352q0 -201 -156 -325t-408 -124q-248 0 -383 116t-135 304zM414 408q0 -88 56 -135.5t160.5 -47.5t162 49.5t57.5 139.5 q0 78 -61.5 124t-184.5 93q-190 -86 -190 -223zM444 1067q0 -72 56.5 -115t165.5 -84q166 70 165 199q0 68 -53 110t-141 42q-90 0 -141.5 -42t-51.5 -110z" />
<glyph unicode="9" horiz-adv-x="1263" d="M66 971q0 217 153.5 357t384.5 140q264 0 408.5 -175t144.5 -453q0 -252 -80 -443.5t-256 -307.5t-432 -116q-53 0 -99 5.5t-65 9.5l-20 6l14 239q61 -8 160 -8q125 0 218 41t137 100.5t69.5 119t27.5 100.5l5 41q-145 -84 -320 -84q-197 0 -323.5 110.5t-126.5 317.5z M389 1001q0 -104 56.5 -161.5t164.5 -57.5q57 0 115.5 18.5t89.5 37.5l29 18v55q0 156 -66.5 232t-171.5 76q-98 0 -157.5 -58.5t-59.5 -159.5z" />
<glyph unicode=":" horiz-adv-x="624" d="M137 160q0 84 52.5 134t125.5 50q170 0 170 -184q0 -86 -51 -136.5t-125 -50.5q-84 0 -128 48.5t-44 138.5zM137 774q0 86 52.5 136.5t125.5 50.5q170 0 170 -187q0 -84 -52 -134t-124 -50q-84 0 -128 48t-44 136z" />
<glyph unicode=";" horiz-adv-x="636" d="M86 -272q123 164 123 245q0 25 -29.5 80.5t-29.5 108.5q0 82 50 132t128 50t124 -49t46 -139q0 -230 -281 -535zM150 774q0 86 51 136.5t125 50.5q84 0 128 -48.5t44 -138.5q0 -84 -52.5 -134t-123.5 -50q-84 0 -128 48t-44 136z" />
<glyph unicode="&#x3c;" horiz-adv-x="1222" d="M82 426v246l1059 448v-266l-727 -307l727 -297v-270z" />
<glyph unicode="=" horiz-adv-x="1228" d="M102 219v236h1024v-236h-1024zM102 659v236h1024v-236h-1024z" />
<glyph unicode="&#x3e;" horiz-adv-x="1222" d="M82 -20v270l727 297l-727 307v266l1059 -448v-246z" />
<glyph unicode="?" horiz-adv-x="950" d="M133 1526q170 49 305 49q111 0 199 -27.5t149.5 -101.5t61.5 -189q0 -88 -38 -165.5t-92 -135t-108.5 -108.5t-92.5 -105.5t-38 -105.5l4 -119l-272 -12q-18 133 -18 201q0 66 54 134t118.5 116.5t119 114t54.5 128.5q0 135 -185 135q-39 0 -85 -6t-72 -10l-25 -6z M193 160q0 84 52 134t124 50q84 0 128 -48t44 -136q0 -86 -52.5 -136.5t-126.5 -50.5q-169 1 -169 187z" />
<glyph unicode="@" horiz-adv-x="1679" d="M96 707q0 352 208 556.5t558 204.5q342 0 538.5 -186t196.5 -532q0 -211 -107.5 -330t-275.5 -119q-174 0 -245 127q-12 -12 -33 -32.5t-84.5 -53.5t-124.5 -33q-109 0 -170 63.5t-61 172.5q0 244 344 243h94v70q0 96 -119 96q-41 0 -96 -8t-90 -16l-35 -10l-39 151 q164 61 309 62q158 0 229.5 -61.5t71.5 -197.5v-339q0 -72 72 -72q63 0 99 70.5t36 205.5q0 250 -134 390.5t-386 140.5q-254 0 -392 -144.5t-138 -408.5q0 -266 119.5 -407.5t363.5 -141.5q61 0 125.5 12.5t97.5 24.5l33 14l84 -168l-45 -22.5t-121 -37t-188 -22.5 q-336 0 -515.5 189.5t-179.5 548.5zM711 563q0 -35 22.5 -55.5t61.5 -20.5q70 0 139 70v96h-80q-143 0 -143 -90z" />
<glyph unicode="A" horiz-adv-x="1560" d="M25 0v178l149 47l451 1213l327 6l441 -1219l143 -47v-178h-651v178l153 47l-49 154h-454l-52 -152l160 -49v-178h-618zM606 598h316l-154 485z" />
<glyph unicode="B" horiz-adv-x="1345" d="M82 0v178q51 18 154 51v973l-154 62v170l465 10h215q207 0 328.5 -89t121.5 -265q0 -260 -245 -338q293 -84 293 -328q0 -424 -533 -424h-645zM547 240h170q106 0 162.5 49t56.5 135q0 111 -65.5 163t-204.5 52h-119v-399zM547 854h119q229 0 229 190q0 78 -48 118 t-126 40h-174v-348z" />
<glyph unicode="C" horiz-adv-x="1335" d="M82 700q0 358 186.5 563t503.5 205q111 0 229.5 -23.5t182.5 -47.5l65 -25l-10 -389h-201l-47 197q-93 32 -221 32h-8q-338 0 -338 -501q0 -471 348 -471q90 0 187.5 35.5t150.5 72.5l51 35l113 -184q-8 -8 -24.5 -23.5t-71 -54.5t-113.5 -67.5t-148.5 -53.5t-179.5 -25 q-313 0 -484 185.5t-171 539.5z" />
<glyph unicode="D" horiz-adv-x="1495" d="M106 0v178l154 51v973l-154 62v170l472 10h194q311 0 481 -180.5t170 -522.5q0 -344 -184 -542.5t-498 -198.5h-635zM578 240h170q160 0 245.5 113.5t85.5 377.5q0 250 -80.5 360.5t-236.5 110.5h-184v-962z" />
<glyph unicode="E" horiz-adv-x="1284" d="M113 0v178l153 51v973l-153 62v170l471 10h573v-395h-190l-52 153h-331v-342h413v-225h-413v-395h362l47 170h189v-410h-1069z" />
<glyph unicode="F" horiz-adv-x="1187" d="M92 0v178q51 18 154 51v973l-154 62v170l471 10h574v-389h-191l-51 147h-332v-362h424v-226h-424v-385q160 -43 189 -51v-178h-660z" />
<glyph unicode="G" horiz-adv-x="1536" d="M113 700q0 358 186 563t504 205q111 0 229.5 -23.5t184.5 -47.5l63 -25l-10 -368h-191l-51 176q-93 32 -223 32h-8q-342 0 -342 -501q0 -475 348 -475q47 0 103.5 9t88.5 17l33 10v258l-154 48v167l590 11v-178l-139 -48v-417q-25 -16 -69 -39t-189 -61t-299 -38 q-313 0 -484 185.5t-171 539.5z" />
<glyph unicode="H" horiz-adv-x="1622" d="M72 0v178l153 51v973l-153 62v170l628 10v-180l-157 -62v-338h536v338l-157 62v170l628 10v-180l-153 -62v-973l153 -51v-178h-628v178l157 51v396h-536v-396l157 -51v-178h-628z" />
<glyph unicode="I" horiz-adv-x="768" d="M72 0v178l153 51v973l-153 62v170l624 10v-180l-153 -62v-973l153 -51v-178h-624z" />
<glyph unicode="J" horiz-adv-x="782" d="M-66 -307l27 205h98q180 0 181 196v1108l-154 62v170l625 10v-180l-154 -62v-985q0 -279 -103.5 -409t-363.5 -130z" />
<glyph unicode="K" horiz-adv-x="1505" d="M82 0v178l154 51v973l-154 62v170l629 10v-180l-158 -62v-352h139l342 584l373 10v-180l-182 -58l-271 -446l383 -531l152 -51v-178h-629v178l119 49l-277 398h-149v-396l158 -51v-178h-629z" />
<glyph unicode="L" horiz-adv-x="1105" d="M66 0v178l153 51v973l-153 62v170l624 10v-180l-153 -62v-962h313l45 231h195v-471h-1024z" />
<glyph unicode="M" horiz-adv-x="1796" d="M76 0v178l153 51v973l-153 62v170l528 10l307 -682l322 672l491 10v-180l-147 -62v-973l154 -51v-178h-611v178l160 51v777q-37 -96 -85 -200t-108.5 -225.5t-93.5 -191.5l-221 -10l-235 485l-35 107v-742l157 -51v-178h-583z" />
<glyph unicode="N" horiz-adv-x="1607" d="M72 0v178l153 51v973l-153 62v170l491 10l553 -946v704l-149 62v170l583 10v-180l-153 -62v-1202h-342l-549 928v-699l160 -51v-178h-594z" />
<glyph unicode="O" horiz-adv-x="1546" d="M113 711q0 352 181 554.5t494 202.5q307 0 476.5 -191.5t169.5 -535.5q0 -346 -189.5 -557t-497 -211t-471 188.5t-163.5 549.5zM455 721q0 -252 74.5 -372t228.5 -120q162 0 247 118t85 384q0 250 -78 365.5t-234 115.5q-160 0 -241.5 -113.5t-81.5 -377.5z" />
<glyph unicode="P" horiz-adv-x="1290" d="M86 0v178l154 51v973l-154 62v170l471 10h195q233 0 365 -115t132 -315q0 -254 -150.5 -383t-432.5 -129h-109v-273l154 -51v-178h-625zM557 741h109q129 0 197.5 59.5t68.5 172.5q0 102 -54.5 165.5t-156.5 63.5h-164v-461z" />
<glyph unicode="Q" horiz-adv-x="1519" d="M113 711q0 350 186 553.5t504 203.5q313 0 482 -191.5t169 -535.5q0 -264 -112.5 -452.5t-313.5 -265.5q16 -10 91 -60.5t110 -71t93 -43t101 -22.5q29 0 76 17.5t80 35.5l33 19q20 -31 59 -90.5t49 -73.5q-25 -16 -63.5 -40t-131.5 -64t-153 -40q-102 0 -262 109 l-414 278q-285 18 -434 205t-149 529zM451 721q0 -492 321 -492q174 0 259 123t85 379q0 248 -77.5 364.5t-245.5 116.5q-174 0 -258 -117.5t-84 -373.5z" />
<glyph unicode="R" horiz-adv-x="1392" d="M82 0v178l154 51v973l-154 62v170l471 10h156q256 0 394 -105.5t138 -312.5q0 -272 -231 -387q51 -59 86 -133l137 -281l139 -47v-178h-379l-172 379q-55 123 -87 155.5t-109 32.5h-72v-338l147 -51v-178h-618zM553 782h117q121 0 188.5 56.5t67.5 158.5 q0 92 -55.5 148.5t-149.5 56.5h-168v-420z" />
<glyph unicode="S" horiz-adv-x="1236" d="M119 1034q0 207 144.5 320.5t375.5 113.5q102 0 215 -20.5t174 -40.5l62 -21l-11 -372h-188l-51 174q-92 31 -181 31q-104 0 -160.5 -41t-56.5 -105q0 -55 51.5 -96t128 -64.5t166 -60.5t166 -80t128 -127t51.5 -196q0 -223 -155 -349.5t-398 -126.5q-102 0 -217 19.5 t-179 40.5l-61 18v393h209l30 -172q82 -43 201 -43q104 0 176 44t72 122q0 55 -51 96t-128 64t-167 60.5t-167 81.5t-128 131t-51 206z" />
<glyph unicode="T" horiz-adv-x="1228" d="M20 1008v430l1188 6v-436h-190l-51 194h-195v-973l170 -51v-178h-655v178l168 51v973h-195l-51 -194h-189z" />
<glyph unicode="U" horiz-adv-x="1601" d="M66 1264v170l630 10v-180l-159 -62v-649q0 -178 59 -253t207 -75q156 0 209 83t53 276v618l-160 62v170l631 10v-180l-154 -62v-618q0 -307 -135 -458t-454 -151q-303 0 -438.5 139.5t-135.5 438.5v649z" />
<glyph unicode="V" horiz-adv-x="1492" d="M14 1264v170l635 10v-180l-151 -60l188 -592l66 -252l65 242l203 600l-156 62v170l613 10v-180l-150 -62l-432 -1202h-328l-413 1206z" />
<glyph unicode="W" horiz-adv-x="2119" d="M10 1264v170l608 10v-180l-149 -62l176 -741l287 966l276 17l275 -981l196 739l-153 62v170l583 10v-180l-147 -62l-350 -1202h-291l-268 973q-49 -201 -161 -566.5t-124 -406.5h-283l-331 1204z" />
<glyph unicode="X" horiz-adv-x="1515" d="M20 0v178l127 43l414 504l-381 500l-119 39v170l615 10v-180l-103 -35l211 -285l201 277l-111 43v170l590 10v-180l-135 -41l-377 -482l400 -522l143 -41v-178h-635v178l94 33l-225 307l-229 -299l129 -41v-178h-609z" />
<glyph unicode="Y" horiz-adv-x="1366" d="M14 1264v170l580 10v-180l-105 -43l205 -445l217 443l-112 45v170l553 10v-180l-142 -56l-370 -706v-273l153 -51v-178h-624v178l153 51v271l-375 708z" />
<glyph unicode="Z" horiz-adv-x="1259" d="M61 0v209l727 993h-430l-51 -184h-194v426h1085v-232l-713 -972h467l45 211h195v-451h-1131z" />
<glyph unicode="[" horiz-adv-x="720" d="M137 -471v2048l512 -10v-211l-243 -23v-1562l243 -23v-209z" />
<glyph unicode="\" horiz-adv-x="1036" d="M14 1444h314l682 -1444h-312z" />
<glyph unicode="]" horiz-adv-x="720" d="M66 -250l245 23v1560l-245 23v211l512 10v-2048l-512 10v211z" />
<glyph unicode="^" horiz-adv-x="1218" d="M102 655l394 789h225l395 -789h-264l-248 502l-246 -502h-256z" />
<glyph unicode="_" horiz-adv-x="1024" d="M0 -164h1024v-205h-1024v205z" />
<glyph unicode="`" horiz-adv-x="856" d="M147 1513l119 224l443 -289l-97 -164z" />
<glyph unicode="a" d="M76 301q0 338 491 338h144v113q0 153 -156 153h-2q-47 0 -92 -8t-68 -16l-20 -7l-31 -133h-184l-15 303q248 82 445 82q233 0 329.5 -91t96.5 -314v-506l153 -37v-164l-405 -14l-37 133q-18 -16 -49 -41.5t-118 -68.5t-165 -43q-150 0 -233.5 83.5t-83.5 237.5zM371 332 q0 -123 121 -123q49 0 103 29.5t85 60.5l31 29v137h-117q-119 0 -171 -31.5t-52 -101.5z" />
<glyph unicode="b" horiz-adv-x="1218" d="M-20 1407v164l454 16v-569q140 108 290 108h3q205 0 312.5 -141t107.5 -401q0 -293 -151.5 -451t-442.5 -158q-100 0 -204.5 11.5t-160.5 21.5l-55 12v1346zM434 231q47 -16 152 -16q243 0 243 345q0 325 -200 325q-55 0 -103.5 -22.5t-70.5 -47.5l-21 -22v-562z" />
<glyph unicode="c" horiz-adv-x="1054" d="M61 537q0 274 148.5 431.5t415.5 157.5q78 0 168 -17t141 -36l49 -18l-10 -334h-185l-28 147q-59 16 -142 17q-115 0 -177 -77t-62 -230q0 -174 64.5 -266.5t191.5 -92.5q41 0 78 7t71.5 21.5t54 25t53.5 31t40 24.5l102 -174q-199 -174 -440 -174q-252 0 -392.5 147 t-140.5 410z" />
<glyph unicode="d" horiz-adv-x="1280" d="M66 526q0 291 146 445.5t433 154.5q68 0 133 -20v260l-164 41v164l465 16v-1368l164 -41v-164l-430 -14l-18 109q-129 -129 -310 -129q-211 0 -315 143t-104 403zM580 219q57 0 107 30t71 58l20 29v524q-51 31 -160 31q-235 0 -235 -345q0 -327 197 -327z" />
<glyph unicode="e" horiz-adv-x="1140" d="M72 532q0 272 145 433t401 161q225 0 346 -129t121 -352l-12 -153l-680 -7q8 -127 75 -196.5t171 -69.5q76 0 162 23.5t133 48.5l49 24l88 -163q-23 -18 -63.5 -47t-163.5 -77t-240 -48q-260 0 -396 144t-136 408zM397 676h369q0 211 -168 211q-84 0 -136 -57.5 t-65 -153.5z" />
<glyph unicode="f" horiz-adv-x="952" d="M106 881v174l185 30v93q0 201 112.5 317.5t323.5 116.5q98 0 187.5 -19.5t129.5 -38.5l41 -18l-6 -303h-178l-31 151q-51 8 -118 9q-158 0 -158 -181v-127h266l-6 -204h-260v-666l197 -51v-164h-664v164l164 51v666h-185z" />
<glyph unicode="g" horiz-adv-x="1259" d="M86 -225q0 78 53.5 139t106.5 84l55 22q-14 2 -34.5 8.5t-54.5 41t-34 86.5q0 63 107 231q-158 104 -158 320q0 203 136 311t355 108q137 0 242 -49l352 8v-163l-168 -29q0 -2 10.5 -27.5t17.5 -60.5t7 -74q0 -213 -133 -316.5t-358 -103.5q-25 0 -48.5 2t-39 5.5 t-17.5 3.5l-8 -138h303q197 0 303.5 -82t106.5 -235q0 -176 -144.5 -282.5t-429.5 -106.5q-258 0 -393 67.5t-135 229.5zM383 -174q0 -74 60.5 -98.5t195.5 -24.5q139 0 200.5 33t61.5 106q0 66 -48 91.5t-157 25.5h-215q-10 -4 -26.5 -14.5t-44 -45t-27.5 -73.5zM434 721 q0 -205 164 -205q94 0 134 49t40 156q0 194 -164 194q-174 0 -174 -194z" />
<glyph unicode="h" horiz-adv-x="1366" d="M51 0v164l164 51v1151l-164 41v164l465 16v-600q168 139 344 139q154 0 236 -97t82 -271v-543l143 -51v-164h-553v164l106 49v498q0 163 -133 163h-2q-51 0 -106 -27.5t-86 -53.5l-31 -27v-551l109 -51v-164h-574z" />
<glyph unicode="i" horiz-adv-x="733" d="M72 0v164l164 51v670l-164 41v164l465 16v-891l143 -51v-164h-608zM197 1444q0 84 52 134t124 50q172 0 172 -184q0 -86 -52.5 -136.5t-119.5 -50.5q-84 0 -130 48.5t-46 138.5z" />
<glyph unicode="j" horiz-adv-x="653" d="M-96 -487l24 190h107q90 0 129 50t39 153v979l-164 41v164l467 16v-1079q0 -276 -98.5 -402.5t-348.5 -126.5zM162 1444q0 82 50 133t126 51q172 0 172 -184q0 -82 -50 -134.5t-122 -52.5q-84 0 -130 48.5t-46 138.5z" />
<glyph unicode="k" horiz-adv-x="1300" d="M51 0v164l164 51v1151l-164 41v164l465 16v-897h133l142 217l-91 29v164l529 10v-174l-144 -27l-190 -272l229 -424l156 -49v-164h-379l-254 502h-131v-287l113 -51v-164h-578z" />
<glyph unicode="l" horiz-adv-x="733" d="M51 0v164l164 51v1151l-164 41v164l473 16v-1372l195 -51v-164h-668z" />
<glyph unicode="m" horiz-adv-x="2011" d="M72 0v164l157 51v672l-155 39v164l422 16l14 -145q20 18 55 45.5t129 73.5t174 46q203 0 279 -176q31 31 72 64t129 72.5t170 39.5q154 0 231.5 -96t77.5 -272v-543l139 -51v-164h-549v164l109 51v481q0 86 -28 127t-91 41q-59 0 -115.5 -26.5t-83.5 -53.5l-28 -26v-543 l106 -51v-164h-516v164l107 51v481q0 88 -27 128t-90 40q-59 0 -116.5 -26.5t-86.5 -53.5l-27 -26v-543l109 -51v-164h-567z" />
<glyph unicode="n" horiz-adv-x="1382" d="M72 0v164l157 51v670l-157 41v164l424 16l14 -141q23 18 59.5 43.5t136 69.5t181.5 44q147 0 226 -97t79 -267v-543q27 -8 76 -26.5t67 -24.5v-164h-553v164l109 51v496q0 72 -38 117.5t-101 45.5q-57 0 -111.5 -29.5t-81.5 -58.5l-27 -28v-543l107 -51v-164h-567z" />
<glyph unicode="o" d="M72 543q0 274 149.5 428.5t403.5 154.5q248 0 382 -144t134 -409q0 -274 -148.5 -433.5t-398.5 -159.5q-522 0 -522 563zM389 553q0 -176 51.5 -257t164 -81t165.5 80t53 268q0 166 -50 247t-159 81q-117 0 -171 -76t-54 -262z" />
<glyph unicode="p" horiz-adv-x="1290" d="M41 926v164l430 16l18 -115q16 14 44 37t107 60.5t153 37.5q209 0 317.5 -144t108.5 -398q0 -291 -140.5 -447.5t-419.5 -156.5q-72 0 -153 20v-260l194 -47v-164h-655v164l160 47v1145zM506 225q49 -30 153 -30h7q127 0 181 87t54 265q0 338 -205 338q-59 0 -106 -29 t-66 -57l-18 -27v-547z" />
<glyph unicode="q" d="M66 522q0 285 151.5 444.5t441.5 159.5q100 0 205 -12t160 -24l55 -13v-1333l154 -51v-164h-649v164l194 51v346q-14 -12 -41.5 -30.5t-104.5 -49t-147 -30.5q-209 0 -314 144t-105 398zM431 300q48 -81 155 -81q57 0 105 23.5t67 46.5l20 22v563q-57 16 -160 17 q-235 0 -235 -345q0 -165 48 -246z" />
<glyph unicode="r" horiz-adv-x="1003" d="M72 0v164l164 51v670l-164 41v164l424 16l18 -141q16 18 45 44.5t103.5 71.5t136.5 45q49 0 95 -9t69 -19l20 -8l-16 -390h-179l-30 174q-53 0 -108.5 -28.5t-84.5 -57.5l-28 -28v-545l194 -51v-164h-659z" />
<glyph unicode="s" horiz-adv-x="1005" d="M78 776q0 180 120.5 265t301.5 85q82 0 177 -15t150 -30l54 -16q-4 -102 -9 -307h-180l-30 133q-53 20 -136 20q-63 0 -100 -27.5t-37 -76.5q0 -47 56.5 -80t135 -57.5t158.5 -56t136.5 -99.5t56.5 -166q0 -174 -128 -271t-343 -97q-86 0 -180.5 11t-145.5 21l-51 13v333 h188l17 -143q68 -20 168 -20q161 0 161 109q0 48 -55 82t-135 58.5t-160 58.5t-135 103.5t-55 169.5z" />
<glyph unicode="t" horiz-adv-x="894" d="M35 854v195l190 26v283l301 55v-338h287v-221h-287v-463q0 -102 22.5 -143t86.5 -41q74 0 162 47l73 -148q-180 -126 -348 -126q-170 0 -233.5 109.5t-63.5 381.5v383h-190z" />
<glyph unicode="u" horiz-adv-x="1341" d="M33 926v164l452 16v-703q0 -84 27 -123.5t88 -39.5q57 0 117.5 27.5t93.5 56.5l31 28v537l-152 37v164l453 16v-891l155 -41v-160l-417 -14l-21 143q-6 -6 -19.5 -17t-52 -40t-79.5 -50.5t-99.5 -38.5t-111.5 -17q-154 0 -235 96t-81 270v543z" />
<glyph unicode="v" horiz-adv-x="1226" d="M10 932v164l537 10v-174l-115 -21l186 -604l181 598l-119 27v164l537 10v-174l-117 -27l-330 -905h-338l-323 899z" />
<glyph unicode="w" horiz-adv-x="1798" d="M12 932v164l537 10v-174l-129 -25l135 -575l217 739l270 45l224 -784l120 569l-124 31v164l524 10v-174l-109 -25l-272 -907h-313l-162 522l-37 160l-51 -223l-150 -459h-311l-279 903z" />
<glyph unicode="x" d="M20 0v164l154 41l225 338l-247 362l-111 27v164l530 10v-174l-61 -12l106 -181l213 357l342 10v-174l-127 -27l-235 -352l231 -348l152 -41v-164h-557v164l63 22l-108 181l-221 -367h-349z" />
<glyph unicode="y" horiz-adv-x="1251" d="M20 932v164l547 10v-174l-114 -21l182 -573l174 567l-119 27v164l551 10v-174l-127 -27l-301 -839q-45 -121 -85 -204t-105.5 -172t-157.5 -135.5t-209 -46.5l-199 17l29 219h133q57 0 105.5 25.5t82 73.5t50.5 79t37 76l-365 901z" />
<glyph unicode="z" horiz-adv-x="1058" d="M102 0v188l535 703h-295l-35 -160h-180v375h860v-191l-526 -700h313l39 184h180v-399h-891z" />
<glyph unicode="{" horiz-adv-x="827" d="M61 502v205q109 0 152 55t43 158v288q0 199 92 289t281 90h137v-211q-145 0 -196.5 -43t-51.5 -166v-215q0 -141 -42 -225t-146 -123q188 -74 188 -291v-354q0 -123 51.5 -166t196.5 -43v-211h-137q-205 0 -289 100.5t-84 333.5v316q0 102 -43 157.5t-152 55.5z" />
<glyph unicode="|" horiz-adv-x="577" d="M168 -471v2017h242v-2017h-242z" />
<glyph unicode="}" horiz-adv-x="837" d="M82 -250q145 0 195.5 43t50.5 166v354q0 217 190 291q-190 74 -190 289v274q0 123 -50.5 166t-195.5 43v211h137q190 0 281.5 -91t91.5 -288v-288q0 -102 43 -157.5t151 -55.5v-205q-109 0 -151.5 -55.5t-42.5 -157.5v-316q0 -233 -86 -333.5t-289 -100.5h-135v211z" />
<glyph unicode="~" horiz-adv-x="1282" d="M88 532q4 10 13.5 26.5t40 57.5t65.5 73t92 58.5t119 26.5q90 0 222 -68.5t202 -68.5q49 0 98 27.5t74 56.5l24 29l136 -103q-4 -10 -13.5 -26.5t-41.5 -58.5t-66.5 -74.5t-90 -59.5t-112.5 -27q-88 0 -230.5 69t-213.5 69q-49 0 -96.5 -28t-71.5 -56l-23 -27z" />
<glyph unicode="&#xa1;" horiz-adv-x="690" d="M168 954q0 86 52 136.5t126 50.5q170 -1 170 -187q0 -84 -52 -134t-124 -50q-84 0 -128 48t-44 136zM188 -453l37 1033l246 10l39 -1043h-322z" />
<glyph unicode="&#xa2;" horiz-adv-x="1044" d="M78 723q0 209 97 346t282 176v199h221v-187q66 -6 134.5 -23t105.5 -32l34 -14l-10 -311h-174l-29 141q-59 16 -131 16q-229 0 -229 -272q0 -322 244 -322q31 0 61.5 5.5t52 11.5t49 18t40 19.5t38 22.5t29.5 18l100 -160q-143 -127 -315 -154v-221h-221v225 q-182 33 -280.5 164t-98.5 334z" />
<glyph unicode="&#xa3;" horiz-adv-x="1280" d="M123 0v178l102 37q59 20 78 64.5t19 144.5q0 20 -11 231h-188v191l174 28q-6 86 -6 170q0 201 106.5 312.5t329.5 111.5q117 0 225.5 -17t157.5 -36l51 -18v-332h-184l-41 152q-76 12 -174 12q-168 0 -168 -180v-39q0 -47 4 -129h295v-226h-279q10 -119 11 -200 q0 -147 -76 -215h381l47 211h190v-451h-1044z" />
<glyph unicode="&#xa4;" horiz-adv-x="1277" d="M104 240l156 153q-45 96 -45 213q0 119 53 213l-162 164l152 164l164 -164q109 61 227 61q115 0 213 -51l158 156l151 -164l-151 -151q51 -96 51 -216q0 -125 -57 -227l160 -158l-154 -161l-162 159q-98 -57 -219 -57q-135 0 -227 55l-154 -153zM465 610q0 -223 178 -223 q180 0 180 223q0 215 -180 215q-178 0 -178 -215z" />
<glyph unicode="&#xa5;" horiz-adv-x="1376" d="M20 1264v170l578 10v-180l-104 -43l206 -433l218 431l-115 45v170l553 10v-180l-144 -56l-211 -383h195v-184h-1024v184h193l-209 381zM172 334v184h1024v-184h-352v-115l153 -41v-178h-624v178l153 41v115h-354z" />
<glyph unicode="&#xa6;" horiz-adv-x="608" d="M178 297h242v-840h-242v840zM178 748v819h242v-819h-242z" />
<glyph unicode="&#xa7;" horiz-adv-x="1093" d="M127 715q0 199 143 303q-61 98 -61 219q0 166 115.5 270.5t296.5 104.5q80 0 159.5 -15.5t118.5 -31.5l39 -17l-8 -338h-162l-35 176q-51 12 -96 13q-76 0 -118 -39t-42 -100q0 -68 53.5 -127.5t129 -108.5t150.5 -105.5t128 -140.5t53 -188q0 -195 -143 -299 q61 -96 61 -209q0 -174 -114.5 -279.5t-296.5 -105.5q-76 0 -156 14.5t-121 30.5l-41 14l4 350h168l29 -180q43 -12 104 -12q74 0 116 37t42 100q0 66 -53 123t-129 106.5t-152 104.5t-129 140t-53 190zM385 750q0 -57 40 -102.5t140.5 -112t132.5 -93.5q37 45 37 115 q0 57 -40 102.5t-141 112t-134 90.5q-35 -46 -35 -112z" />
<glyph unicode="&#xa8;" horiz-adv-x="1114" d="M184 1458q0 72 44 116t108 44q72 0 109.5 -42t37.5 -118q0 -74 -44 -117t-107 -43q-148 0 -148 160zM631 1458q0 72 45 116t106 44q147 0 148 -160q0 -74 -44 -117t-108 -43q-147 0 -147 160z" />
<glyph unicode="&#xa9;" horiz-adv-x="1685" d="M76 707q0 330 218 548t548 218q332 0 549 -209t217 -537t-227.5 -547t-559.5 -219q-330 0 -537.5 207t-207.5 539zM285 717q0 -252 149.5 -407.5t396.5 -155.5q250 0 409 156.5t159 406.5q0 248 -159 405.5t-409 157.5q-248 0 -397 -156.5t-149 -406.5zM459 700 q0 199 105.5 316t293.5 117q57 0 123 -15.5t104 -32.5l37 -14l-6 -229h-141l-23 112q-51 12 -98 13q-170 0 -170 -240q0 -246 178 -246q57 0 116.5 25.5t92.5 52.5l76 -117q-158 -131 -311 -131q-174 0 -275.5 101.5t-101.5 287.5z" />
<glyph unicode="&#xaa;" horiz-adv-x="958" d="M115 883q0 242 350 241h94v74q0 45 -27.5 69.5t-74.5 24.5q-31 0 -63 -5t-48 -9l-16 -4l-19 -88h-145l-12 223q195 59 333 59q168 0 236 -68.5t68 -223.5v-345l108 -24v-135l-285 -13l-28 103q-12 -12 -33 -31.5t-83 -52.5t-124 -33q-111 0 -171 61.5t-60 176.5zM135 276 v205h764v-205h-764zM336 899q0 -33 22.5 -53.5t59.5 -20.5q33 0 67.5 17.5t55.5 34.5l18 18v96h-80q-143 0 -143 -92z" />
<glyph unicode="&#xab;" horiz-adv-x="1226" d="M113 463v158l311 362l170 -113l-223 -327l223 -328l-170 -115zM625 463v158l319 362l170 -113l-231 -327l231 -328l-170 -115z" />
<glyph unicode="&#xac;" horiz-adv-x="1314" d="M123 532v236h1079v-604h-260v368h-819z" />
<glyph unicode="&#xad;" horiz-adv-x="808" d="M117 430v256h579v-256h-579z" />
<glyph unicode="&#xae;" horiz-adv-x="1480" d="M92 920q0 281 185.5 465t464 184t463 -175t184.5 -452q0 -279 -194 -464t-476 -185q-276 0 -451.5 174t-175.5 453zM293 932q0 -207 117.5 -333t320.5 -126q205 0 332 127t127 332t-127 331t-332 126q-203 0 -320.5 -125t-117.5 -332zM455 618v93l69 24v406l-69 28v86 l293 5h6q74 0 128 -20.5t85.5 -63.5t31.5 -103q0 -119 -108 -172q16 -10 35 -45l63 -121l68 -24v-93h-185l-84 187q-16 37 -28 49t-31 12h-47v-131l68 -24v-93h-295zM682 975h53q43 0 74 22.5t31 59.5q0 82 -90 82h-68v-164z" />
<glyph unicode="&#xaf;" horiz-adv-x="716" d="M86 1311v219h543v-219h-543z" />
<glyph unicode="&#xb0;" horiz-adv-x="872" d="M92 1188q0 147 96.5 238.5t248 91.5t247.5 -87.5t96 -232.5q0 -156 -96 -248t-248 -92q-154 0 -249 88t-95 242zM297 1196q0 -74 36 -115t103.5 -41t103 41t35.5 115q0 66 -37.5 102.5t-101 36.5t-101.5 -36.5t-38 -102.5z" />
<glyph unicode="&#xb1;" horiz-adv-x="1273" d="M106 -74v234h1061v-234h-1061zM106 590v239h396v301h272v-301h393v-239h-393v-309h-272v309h-396z" />
<glyph unicode="&#xb2;" horiz-adv-x="827" d="M68 573v205q260 199 315 256q78 82 78 152q0 80 -105 80q-23 0 -44 -4.5t-33 -8.5l-11 -2l-14 -108h-174l-6 270q158 51 303 51q168 0 265 -60.5t97 -184.5q0 -117 -69.5 -203t-251.5 -228h330v-215h-680z" />
<glyph unicode="&#xb3;" horiz-adv-x="808" d="M35 635l55 172q127 -55 244 -55q63 0 101 29.5t38 66.5q0 92 -149 92h-111v154h113q139 0 139 98q0 82 -113 82l-108 -12l-11 -86h-167l-7 241q176 47 318 47q166 0 255 -58t89 -169q0 -80 -45 -132t-121 -73q78 -14 132 -68.5t54 -129.5q0 -139 -109.5 -208t-279.5 -69 q-72 0 -150.5 19.5t-123.5 37.5z" />
<glyph unicode="&#xb4;" horiz-adv-x="856" d="M147 1448l443 289l119 -221l-465 -232z" />
<glyph unicode="&#xb6;" horiz-adv-x="1476" d="M102 1006q0 190 124 314t337 124h379l422 -17v-163l-164 -41v-1571h-258v1571h-215v-1571h-412v170l168 45v692q-164 16 -272.5 142t-108.5 305z" />
<glyph unicode="&#xb7;" horiz-adv-x="612" d="M125 627q0 90 51 141t133 51q176 0 176 -192q0 -90 -50 -140.5t-132 -50.5q-178 1 -178 191z" />
<glyph unicode="&#xb8;" horiz-adv-x="882" d="M195 -412l63 113q82 -43 160 -43q47 0 74.5 21.5t27.5 56.5q0 88 -168 88v176h174v-88q82 -16 129 -63.5t47 -118.5q0 -92 -71.5 -149.5t-186.5 -57.5q-61 0 -123.5 16.5t-95.5 32.5z" />
<glyph unicode="&#xb9;" horiz-adv-x="804" d="M31 1241l323 203h224v-688h186v-183h-643v183h196v428l-186 -113z" />
<glyph unicode="&#xba;" horiz-adv-x="1011" d="M102 1044q0 193 118 308.5t300 115.5q180 0 284.5 -103t104.5 -291.5t-115.5 -308.5t-297.5 -120q-184 0 -289 101.5t-105 297.5zM119 276v205h774v-205h-774zM358 1053q0 -219 147.5 -219t147.5 231q0 215 -143 215q-152 0 -152 -227z" />
<glyph unicode="&#xbb;" horiz-adv-x="1226" d="M113 215l231 328l-231 327l170 113l319 -362v-158l-319 -363zM633 215l223 328l-223 327l170 113l311 -362v-158l-311 -363z" />
<glyph unicode="&#xbc;" horiz-adv-x="2195" d="M92 1241l324 203h223v-688h164v-183h-621v183h197v428l-186 -113zM522 0l836 1444h297l-836 -1444h-297zM1266 330l403 551l295 -35v-498h119v-190h-119v-158h-260v158h-410zM1509 348h195v260z" />
<glyph unicode="&#xbd;" horiz-adv-x="2197" d="M92 1241l324 203h223v-688h164v-183h-621v183h197v428l-186 -113zM524 0l836 1444h297l-836 -1444h-297zM1399 0v205q258 199 307 250q86 86 86 159q0 78 -106 78q-23 0 -44.5 -4t-31.5 -8l-13 -2l-12 -109h-174l-6 271q156 51 301 51q170 0 267.5 -60.5t97.5 -185.5 q0 -117 -70 -203t-252 -227h330v-215h-680z" />
<glyph unicode="&#xbe;" horiz-adv-x="2158" d="M82 616l55 172q125 -53 242 -53q53 0 97 25.5t44 70.5q0 92 -151 93h-109v151h113q137 0 137 103q0 80 -111 79q-27 0 -54.5 -4t-41.5 -8l-14 -2l-10 -84h-166l-9 240q178 47 320 47q166 0 254 -58t88 -167q0 -162 -166 -207q76 -12 132 -67.5t56 -131.5 q0 -137 -109.5 -205.5t-279.5 -68.5q-72 0 -151.5 18.5t-122.5 38.5zM487 0l836 1444h297l-836 -1444h-297zM1231 330l401 551l295 -35v-498h119v-190h-119v-158h-260v158h-407zM1473 348h194v260z" />
<glyph unicode="&#xbf;" horiz-adv-x="944" d="M102 -143q0 88 38 165.5t92.5 135t108.5 108.5t92 105.5t38 105.5l-4 119l270 12q18 -133 19 -200q0 -66 -54.5 -134.5t-118 -116.5t-117.5 -114t-54 -129q0 -135 184 -135q39 0 84 6t72 10l26 6l39 -213q-172 -49 -305 -49q-111 0 -199 27.5t-149.5 101.5t-61.5 189z M410 954q0 86 51 136.5t125 50.5q84 0 128 -48.5t44 -138.5q0 -84 -52.5 -134t-123.5 -50q-84 0 -128 48t-44 136z" />
<glyph unicode="&#xc0;" horiz-adv-x="1560" d="M25 0v178l149 47l451 1213l327 6l441 -1219l143 -47v-178h-651v178l153 47l-49 154h-454l-52 -152l160 -49v-178h-618zM504 1735l119 223l440 -289l-94 -164zM606 598h316l-154 485z" />
<glyph unicode="&#xc1;" horiz-adv-x="1560" d="M25 0v178l149 47l451 1213l327 6l441 -1219l143 -47v-178h-651v178l153 47l-49 154h-454l-52 -152l160 -49v-178h-618zM606 598h316l-154 485zM627 1669l440 289l119 -223l-465 -230z" />
<glyph unicode="&#xc2;" horiz-adv-x="1560" d="M25 0v178l149 47l451 1213l327 6l441 -1219l143 -47v-178h-651v178l153 47l-49 154h-454l-52 -152l160 -49v-178h-618zM369 1655l313 268l182 16l332 -284l-98 -135l-310 200l-321 -200zM606 598h316l-154 485z" />
<glyph unicode="&#xc3;" horiz-adv-x="1560" d="M25 0v178l149 47l451 1213l327 6l441 -1219l143 -47v-178h-651v178l153 47l-49 154h-454l-52 -152l160 -49v-178h-618zM420 1722q4 8 10 23.5t30.5 54.5t51.5 69t72 54.5t92 24.5q74 0 177 -47t163 -47q35 0 70.5 21.5t54.5 43.5l16 21l109 -95q-4 -8 -11.5 -23.5 t-31 -54t-51 -67.5t-71.5 -53.5t-91 -24.5q-74 0 -179.5 45t-164.5 45q-39 0 -76 -21.5t-55 -41.5l-19 -21zM606 598h316l-154 485z" />
<glyph unicode="&#xc4;" horiz-adv-x="1560" d="M25 0v178l149 47l451 1213l327 6l441 -1219l143 -47v-178h-651v178l153 47l-49 154h-454l-52 -152l160 -49v-178h-618zM463 1735q0 72 44 115.5t107 43.5q72 0 110 -42t38 -117q0 -74 -44 -117t-108 -43q-147 0 -147 160zM606 598h316l-154 485zM909 1735q0 72 45 115.5 t107 43.5q147 0 147 -159q0 -74 -44 -117t-107 -43q-148 0 -148 160z" />
<glyph unicode="&#xc5;" horiz-adv-x="1560" d="M25 0v178l149 47l451 1213l327 6l441 -1219l143 -47v-178h-651v178l153 47l-49 154h-454l-52 -152l160 -49v-178h-618zM509 1647q0 123 83 197.5t191.5 74.5t190.5 -69.5t82 -190.5t-83 -196.5t-189 -75.5q-111 0 -193 69.5t-82 190.5zM606 598h316l-154 485zM684 1653 q0 -117 100 -117q43 0 70.5 31t27.5 88q0 117 -98 117q-45 0 -72.5 -31t-27.5 -88z" />
<glyph unicode="&#xc6;" horiz-adv-x="2015" d="M41 0v178l168 51l473 977l-174 58v170l391 10h993v-400h-190l-51 158h-332v-342h414v-225h-414v-395h362l48 174h188v-414h-1067v178l151 51v164h-395l-82 -172l127 -43v-178h-610zM702 614h299v588h-28z" />
<glyph unicode="&#xc7;" horiz-adv-x="1335" d="M82 700q0 358 186.5 563t503.5 205q111 0 229.5 -23.5t182.5 -47.5l65 -25l-10 -389h-201l-47 197q-96 33 -229 32q-338 0 -338 -501q0 -471 348 -471q90 0 187.5 35.5t150.5 72.5l51 35l113 -184q-6 -6 -19.5 -18.5t-56.5 -45.5t-89 -59.5t-117.5 -53t-145.5 -38.5v-74 q174 -35 174 -184q0 -90 -74 -147.5t-184 -57.5q-61 0 -126 17.5t-97 35.5l-33 16l65 115q86 -47 168 -47q43 0 69 20.5t26 55.5q0 88 -168 88v158q-281 18 -432.5 202.5t-151.5 517.5z" />
<glyph unicode="&#xc8;" horiz-adv-x="1280" d="M113 0v178l153 51v973l-153 62v170l471 10h573v-395h-190l-52 153h-331v-342h413v-225h-413v-395h362l47 170h189v-410h-1069zM326 1735l118 223l443 -289l-96 -164z" />
<glyph unicode="&#xc9;" horiz-adv-x="1284" d="M113 0v178l153 51v973l-153 62v170l471 10h573v-395h-190l-52 153h-331v-342h413v-225h-413v-395h362l47 170h189v-410h-1069zM442 1669l443 289l119 -221l-465 -232z" />
<glyph unicode="&#xca;" horiz-adv-x="1284" d="M113 0v178l153 51v973l-153 62v170l471 10h573v-395h-190l-52 153h-331v-342h413v-225h-413v-395h362l47 170h189v-410h-1069zM281 1655l313 268l182 16l332 -284l-98 -135l-310 200l-321 -200z" />
<glyph unicode="&#xcb;" horiz-adv-x="1284" d="M113 0v178l153 51v973l-153 62v170l471 10h573v-395h-190l-52 153h-331v-342h413v-225h-413v-395h362l47 170h189v-410h-1069zM297 1737q0 72 44 116t108 44q72 0 109.5 -42t37.5 -118q0 -74 -44 -117t-107 -43q-148 0 -148 160zM744 1737q0 72 45 116t106 44 q147 0 148 -160q0 -74 -44 -117t-108 -43q-147 0 -147 160z" />
<glyph unicode="&#xcc;" horiz-adv-x="757" d="M18 1735l119 223l443 -289l-97 -164zM51 0v178l154 51v973l-154 62v170l625 10v-180l-154 -62v-973l154 -51v-178h-625z" />
<glyph unicode="&#xcd;" horiz-adv-x="819" d="M82 0v178l154 51v973l-154 62v170l625 10v-180l-154 -62v-973l154 -51v-178h-625zM186 1669l443 289l119 -221l-465 -232z" />
<glyph unicode="&#xce;" horiz-adv-x="919" d="M41 1655l313 268l183 16l331 -284l-98 -135l-309 200l-322 -200zM150 0v178l153 51v973l-153 62v170l624 10v-180l-153 -62v-973l153 -51v-178h-624z" />
<glyph unicode="&#xcf;" horiz-adv-x="827" d="M53 1735q0 72 44 115.5t108 43.5q72 0 109.5 -42t37.5 -117q0 -74 -44 -117t-107 -43q-148 0 -148 160zM100 0v178l154 51v973l-154 62v170l625 10v-180l-154 -62v-973l154 -51v-178h-625zM479 1735q0 72 45 115.5t107 43.5q147 0 147 -159q0 -74 -44 -117t-107 -43 q-148 0 -148 160z" />
<glyph unicode="&#xd0;" horiz-adv-x="1558" d="M102 0v178l185 51v410h-170v225h170v338l-185 62v170l502 10h203q309 0 479 -180.5t170 -522.5q0 -344 -184.5 -542.5t-495.5 -198.5h-674zM602 240h178q160 0 247 113.5t87 377.5q0 250 -81 360.5t-236 110.5h-195v-338h248v-225h-248v-399z" />
<glyph unicode="&#xd1;" horiz-adv-x="1607" d="M72 0v178l153 51v973l-153 62v170l491 10l553 -946v704l-149 62v170l583 10v-180l-153 -62v-1202h-342l-549 928v-699l160 -51v-178h-594zM383 1661q4 8 10 23.5t31 54.5t51.5 68.5t71.5 54t92 24.5q74 0 185.5 -47t170.5 -47q35 0 71 21.5t52 41.5l19 23l112 -86 q-4 -8 -12 -22.5t-35.5 -51.5t-57.5 -65.5t-77 -51t-94 -22.5q-74 0 -179.5 40t-164.5 40q-39 0 -76 -19.5t-53 -37.5l-19 -21z" />
<glyph unicode="&#xd2;" horiz-adv-x="1546" d="M113 711q0 352 181 554.5t494 202.5q307 0 476.5 -191.5t169.5 -535.5q0 -346 -189.5 -557t-497 -211t-471 188.5t-163.5 549.5zM428 1735l119 223l442 -289l-96 -164zM455 721q0 -252 74.5 -372t228.5 -120q162 0 247 118t85 384q0 250 -78 365.5t-234 115.5 q-160 0 -241.5 -113.5t-81.5 -377.5z" />
<glyph unicode="&#xd3;" horiz-adv-x="1546" d="M113 711q0 352 181 554.5t494 202.5q307 0 476.5 -191.5t169.5 -535.5q0 -346 -189.5 -557t-497 -211t-471 188.5t-163.5 549.5zM455 721q0 -252 74.5 -372t228.5 -120q162 0 247 118t85 384q0 250 -78 365.5t-234 115.5q-160 0 -241.5 -113.5t-81.5 -377.5zM526 1669 l443 289l119 -221l-465 -232z" />
<glyph unicode="&#xd4;" horiz-adv-x="1546" d="M113 711q0 352 181 554.5t494 202.5q307 0 476.5 -191.5t169.5 -535.5q0 -346 -189.5 -557t-497 -211t-471 188.5t-163.5 549.5zM369 1655l313 268l182 16l332 -284l-98 -135l-310 200l-321 -200zM455 721q0 -252 74.5 -372t228.5 -120q162 0 247 118t85 384 q0 250 -78 365.5t-234 115.5q-160 0 -241.5 -113.5t-81.5 -377.5z" />
<glyph unicode="&#xd5;" horiz-adv-x="1546" d="M113 711q0 352 181 554.5t494 202.5q307 0 476.5 -191.5t169.5 -535.5q0 -346 -189.5 -557t-497 -211t-471 188.5t-163.5 549.5zM342 1671q4 8 10 23.5t31 54.5t51.5 68.5t71.5 54t92 24.5q74 0 185.5 -47t170.5 -47q35 0 71 21.5t52 44.5l19 20l112 -86q-4 -8 -12 -22.5 t-35.5 -51t-57.5 -65.5t-77 -51.5t-94 -22.5q-74 0 -179.5 40t-164.5 40q-39 0 -76 -19.5t-53 -39.5l-19 -19zM455 721q0 -252 74.5 -372t228.5 -120q162 0 247 118t85 384q0 250 -78 365.5t-234 115.5q-160 0 -241.5 -113.5t-81.5 -377.5z" />
<glyph unicode="&#xd6;" horiz-adv-x="1546" d="M113 711q0 352 181 554.5t494 202.5q307 0 476.5 -191.5t169.5 -535.5q0 -346 -189.5 -557t-497 -211t-471 188.5t-163.5 549.5zM397 1735q0 72 44 115.5t108 43.5q72 0 109.5 -42t37.5 -117q0 -74 -44 -117t-107 -43q-148 0 -148 160zM455 721q0 -252 74.5 -372 t228.5 -120q162 0 247 118t85 384q0 250 -78 365.5t-234 115.5q-160 0 -241.5 -113.5t-81.5 -377.5zM844 1735q0 72 45 115.5t106 43.5q147 0 148 -159q0 -74 -44 -117t-108 -43q-147 0 -147 160z" />
<glyph unicode="&#xd7;" horiz-adv-x="1255" d="M109 207l346 346l-346 346l172 174l346 -348l348 348l172 -174l-346 -346l346 -346l-172 -174l-348 348l-346 -348z" />
<glyph unicode="&#xd8;" horiz-adv-x="1576" d="M127 711q0 352 182.5 554.5t493.5 202.5q160 0 284 -55l127 211l183 -104l-137 -224q188 -193 188 -555q0 -344 -189.5 -555t-496.5 -211q-156 0 -277 50l-151 -250l-182 104l159 262q-184 188 -184 570zM471 743q0 -176 43 -270q55 92 428 705q-65 34 -149 34 q-158 0 -240 -110.5t-82 -358.5zM631 264q59 -35 141 -35q334 0 334 502q0 143 -45 238z" />
<glyph unicode="&#xd9;" horiz-adv-x="1601" d="M66 1264v170l630 10v-180l-159 -62v-649q0 -178 59 -253t207 -75q156 0 209 83t53 276v618l-160 62v170l631 10v-180l-154 -62v-618q0 -307 -135 -458t-454 -151q-303 0 -438.5 139.5t-135.5 438.5v649zM448 1734l119 224l443 -289l-97 -164z" />
<glyph unicode="&#xda;" horiz-adv-x="1601" d="M66 1264v170l630 10v-180l-159 -62v-649q0 -178 59 -253t207 -75q156 0 209 83t53 276v618l-160 62v170l631 10v-180l-154 -62v-618q0 -307 -135 -458t-454 -151q-303 0 -438.5 139.5t-135.5 438.5v649zM639 1669l442 289l119 -221l-465 -232z" />
<glyph unicode="&#xdb;" horiz-adv-x="1601" d="M66 1264v170l630 10v-180l-159 -62v-649q0 -178 59 -253t207 -75q156 0 209 83t53 276v618l-160 62v170l631 10v-180l-154 -62v-618q0 -307 -135 -458t-454 -151q-303 0 -438.5 139.5t-135.5 438.5v649zM381 1655l314 268l182 16l332 -284l-99 -136l-309 201l-321 -201z " />
<glyph unicode="&#xdc;" horiz-adv-x="1601" d="M66 1264v170l630 10v-180l-159 -62v-649q0 -178 59 -253t207 -75q156 0 209 83t53 276v618l-160 62v170l631 10v-180l-154 -62v-618q0 -307 -135 -458t-454 -151q-303 0 -438.5 139.5t-135.5 438.5v649zM428 1735q0 72 44 115.5t108 43.5q72 0 109.5 -42t37.5 -117 q0 -74 -44 -117t-108 -43q-147 0 -147 160zM874 1735q0 72 45.5 115.5t106.5 43.5q147 0 148 -159q0 -74 -44.5 -117t-107.5 -43q-148 0 -148 160z" />
<glyph unicode="&#xdd;" horiz-adv-x="1366" d="M14 1264v170l580 10v-180l-105 -43l205 -445l217 443l-112 45v170l553 10v-180l-142 -56l-370 -706v-273l153 -51v-178h-624v178l153 51v271l-375 708zM516 1669l443 289l119 -221l-465 -232z" />
<glyph unicode="&#xde;" horiz-adv-x="1318" d="M61 0v178l185 51v973l-185 62v170l687 10v-180l-185 -62v-65h203q233 0 362 -98.5t129 -280.5q0 -221 -154.5 -325.5t-428.5 -104.5h-111v-99l185 -51v-178h-687zM563 547h131q119 0 184.5 48t65.5 142q0 84 -58.5 129t-156.5 45h-166v-364z" />
<glyph unicode="&#xdf;" horiz-adv-x="1611" d="M106 860v178l205 31v98q0 201 136.5 323t361.5 122q246 0 381 -93.5t135 -252.5q0 -82 -36 -148.5t-80 -102.5t-79.5 -83t-35.5 -92q0 -51 49 -89t118.5 -67t138 -63.5t118 -103t49.5 -165.5q0 -168 -125 -270t-324 -102q-74 0 -161 11t-138 21l-51 13v329h184l21 -137 q55 -23 135 -22q147 0 147 110q0 49 -49 85t-117.5 64.5t-138 65.5t-119 108.5t-49.5 172.5q0 80 38 142.5t83 95t83 80.5t38 104q0 78 -63.5 120.5t-147.5 42.5q-94 0 -146.5 -54t-52.5 -150v-1182h-467v164l164 51v645h-205z" />
<glyph unicode="&#xe0;" d="M76 301q0 338 491 338h144v113q0 154 -158 153q-47 0 -92 -8t-68 -16l-20 -7l-31 -133h-184l-15 303q248 82 445 82q233 0 329.5 -91t96.5 -314v-506l153 -37v-164l-405 -14l-37 133q-18 -16 -49 -41.5t-118 -68.5t-165 -43q-150 0 -233.5 83.5t-83.5 237.5zM227 1526 l140 213l456 -365l-100 -149zM371 332q0 -123 121 -123q49 0 103 29.5t85 60.5l31 29v137h-117q-119 0 -171 -31.5t-52 -101.5z" />
<glyph unicode="&#xe1;" d="M76 301q0 338 491 338h144v113q0 154 -158 153q-47 0 -92 -8t-68 -16l-20 -7l-31 -133h-184l-15 303q248 82 445 82q233 0 329.5 -91t96.5 -314v-506l153 -37v-164l-405 -14l-37 133q-18 -16 -49 -41.5t-118 -68.5t-165 -43q-150 0 -233.5 83.5t-83.5 237.5zM299 1374 l457 365l139 -213l-496 -301zM371 332q0 -123 121 -123q49 0 103 29.5t85 60.5l31 29v137h-117q-119 0 -171 -31.5t-52 -101.5z" />
<glyph unicode="&#xe2;" d="M76 301q0 338 491 338h144v113q0 154 -158 153q-47 0 -92 -8t-68 -16l-20 -7l-31 -133h-184l-15 303q248 82 445 82q233 0 329.5 -91t96.5 -314v-506l153 -37v-164l-405 -14l-37 133q-18 -16 -49 -41.5t-118 -68.5t-165 -43q-150 0 -233.5 83.5t-83.5 237.5zM145 1372 l336 314l183 16l358 -330l-98 -135l-336 246l-344 -246zM371 332q0 -123 121 -123q49 0 103 29.5t85 60.5l31 29v137h-117q-119 0 -171 -31.5t-52 -101.5z" />
<glyph unicode="&#xe3;" d="M76 301q0 338 491 338h144v113q0 154 -158 153q-47 0 -92 -8t-68 -16l-20 -7l-31 -133h-184l-15 303q248 82 445 82q233 0 329.5 -91t96.5 -314v-506l153 -37v-164l-405 -14l-37 133q-18 -16 -49 -41.5t-118 -68.5t-165 -43q-150 0 -233.5 83.5t-83.5 237.5zM141 1384 q4 8 10.5 23.5t31 54.5t51 69t71.5 54.5t92 24.5q74 0 177.5 -47t162.5 -47q35 0 71 21.5t52 43.5l19 21l108 -95q-4 -8 -11 -23.5t-30.5 -54t-51.5 -67.5t-72 -53.5t-91 -24.5q-74 0 -179.5 45t-164.5 45q-39 0 -76 -21.5t-55 -41.5l-18 -21zM371 332q0 -123 121 -123 q49 0 103 29.5t85 60.5l31 29v137h-117q-119 0 -171 -31.5t-52 -101.5z" />
<glyph unicode="&#xe4;" d="M76 301q0 338 491 338h144v113q0 154 -158 153q-47 0 -92 -8t-68 -16l-20 -7l-31 -133h-184l-15 303q248 82 445 82q233 0 329.5 -91t96.5 -314v-506l153 -37v-164l-405 -14l-37 133q-18 -16 -49 -41.5t-118 -68.5t-165 -43q-150 0 -233.5 83.5t-83.5 237.5zM213 1429 q0 72 44 116t108 44q72 0 109.5 -42t37.5 -118q0 -74 -44 -117t-107 -43q-148 0 -148 160zM371 332q0 -123 121 -123q49 0 103 29.5t85 60.5l31 29v137h-117q-119 0 -171 -31.5t-52 -101.5zM660 1429q0 72 45 116t106 44q147 0 148 -160q0 -74 -44 -117t-108 -43 q-147 0 -147 160z" />
<glyph unicode="&#xe5;" d="M76 301q0 338 491 338h144v113q0 154 -158 153q-47 0 -92 -8t-68 -16l-20 -7l-31 -133h-184l-15 303q248 82 445 82q233 0 329.5 -91t96.5 -314v-506l153 -37v-164l-405 -14l-37 133q-18 -16 -49 -41.5t-118 -68.5t-165 -43q-150 0 -233.5 83.5t-83.5 237.5zM331 1442 q0 123 83 197.5t191.5 74.5t190.5 -69.5t82 -190.5t-83 -196.5t-189 -75.5q-111 0 -193 69.5t-82 190.5zM371 332q0 -123 121 -123q49 0 103 29.5t85 60.5l31 29v137h-117q-119 0 -171 -31.5t-52 -101.5zM506 1448q0 -117 100 -117q43 0 70.5 31t27.5 88q0 117 -98 117 q-45 0 -72.5 -31t-27.5 -88z" />
<glyph unicode="&#xe6;" horiz-adv-x="1767" d="M76 301q0 338 491 338h144v113q0 154 -158 153q-45 0 -90 -8t-68 -16l-22 -7l-31 -133h-184l-15 303q0 4 68 22.5t177.5 38t195.5 19.5q229 0 319 -118q137 121 340 120q221 0 342 -127t121 -352l-12 -160l-678 -6q8 -125 74.5 -193.5t173.5 -68.5q76 0 160.5 23.5 t131.5 48.5l48 24l90 -163q-25 -18 -68 -47t-167 -77t-236 -48q-299 0 -426 204q-174 -205 -404 -204q-145 0 -231 86t-86 235zM369 332q0 -57 32.5 -90t90.5 -33q47 0 102 30.5t86 61.5l31 31v133h-117q-119 0 -172 -31.5t-53 -101.5zM1016 666h375q0 221 -168 221 q-86 0 -140.5 -58.5t-66.5 -162.5z" />
<glyph unicode="&#xe7;" horiz-adv-x="1054" d="M61 537q0 274 148.5 431.5t415.5 157.5q78 0 168 -17t141 -36l49 -18l-10 -334h-185l-28 147q-59 16 -142 17q-115 0 -177 -77t-62 -230q0 -174 64.5 -266.5t191.5 -92.5q41 0 78 7t71.5 21.5t54 25t53.5 31t40 24.5l102 -174q-162 -139 -350 -166v-70q80 -16 128 -64.5 t48 -119.5q0 -88 -73.5 -145.5t-182.5 -57.5q-61 0 -124.5 16.5t-96.5 32.5l-33 17l64 112q86 -43 168 -43q45 0 70.5 20.5t25.5 55.5q0 43 -46 66.5t-124 23.5v154q-213 23 -330 167t-117 384z" />
<glyph unicode="&#xe8;" horiz-adv-x="1140" d="M72 532q0 272 145 433t401 161q225 0 346 -129t121 -352l-12 -153l-680 -7q8 -127 75 -196.5t171 -69.5q76 0 162 23.5t133 48.5l49 24l88 -163q-23 -18 -63.5 -47t-163.5 -77t-240 -48q-260 0 -396 144t-136 408zM258 1526l139 213l457 -365l-100 -149zM397 676h369 q0 211 -168 211q-84 0 -136 -57.5t-65 -153.5z" />
<glyph unicode="&#xe9;" horiz-adv-x="1140" d="M72 532q0 272 145 433t401 161q225 0 346 -129t121 -352l-12 -153l-680 -7q8 -127 75 -196.5t171 -69.5q76 0 162 23.5t133 48.5l49 24l88 -163q-23 -18 -63.5 -47t-163.5 -77t-240 -48q-260 0 -396 144t-136 408zM344 1374l457 365l139 -213l-496 -301zM397 676h369 q0 211 -168 211q-84 0 -136 -57.5t-65 -153.5z" />
<glyph unicode="&#xea;" horiz-adv-x="1140" d="M72 532q0 272 145 433t401 161q225 0 346 -129t121 -352l-12 -153l-680 -7q8 -127 75 -196.5t171 -69.5q76 0 162 23.5t133 48.5l49 24l88 -163q-23 -18 -63.5 -47t-163.5 -77t-240 -48q-260 0 -396 144t-136 408zM152 1372l335 314l183 16l358 -330l-98 -135l-336 246 l-344 -246zM397 676h369q0 211 -168 211q-84 0 -136 -57.5t-65 -153.5z" />
<glyph unicode="&#xeb;" horiz-adv-x="1140" d="M72 532q0 272 145 433t401 161q225 0 346 -129t121 -352l-12 -153l-680 -7q8 -127 75 -196.5t171 -69.5q76 0 162 23.5t133 48.5l49 24l88 -163q-23 -18 -63.5 -47t-163.5 -77t-240 -48q-260 0 -396 144t-136 408zM213 1430q0 72 44 115.5t108 43.5q72 0 109.5 -42 t37.5 -117q0 -74 -44 -117t-108 -43q-147 0 -147 160zM397 676h369q0 211 -168 211q-84 0 -136 -57.5t-65 -153.5zM659 1430q0 72 45.5 115.5t106.5 43.5q147 0 147 -159q0 -74 -44 -117t-107 -43q-148 0 -148 160z" />
<glyph unicode="&#xec;" horiz-adv-x="755" d="M51 1526l139 213l457 -365l-100 -149zM94 0v164l164 51v670l-164 41v164l465 16v-891l143 -51v-164h-608z" />
<glyph unicode="&#xed;" horiz-adv-x="733" d="M72 0v164l164 51v670l-164 41v164l465 16v-891l143 -51v-164h-608zM111 1374l456 365l140 -213l-496 -301z" />
<glyph unicode="&#xee;" horiz-adv-x="733" d="M-57 1372l319 314l182 16l340 -330l-100 -135l-315 246l-326 -246zM72 0v164l164 51v670l-164 41v164l465 16v-891l143 -51v-164h-608z" />
<glyph unicode="&#xef;" horiz-adv-x="733" d="M-2 1430q0 72 44 115.5t108 43.5q72 0 109.5 -42t37.5 -117q0 -74 -44 -117t-108 -43q-147 0 -147 160zM72 0v164l164 51v670l-164 41v164l465 16v-891l143 -51v-164h-608zM424 1430q0 72 45 115.5t106 43.5q147 0 148 -159q0 -74 -44 -117t-108 -43q-147 0 -147 160z " />
<glyph unicode="&#xf0;" horiz-adv-x="1218" d="M66 492q0 252 144 397t378 145q80 0 160 -45q-55 147 -160 246l-240 -137l-119 162l181 102q-84 45 -174 76l94 178q160 -39 301 -125l215 125l119 -162l-166 -94q297 -293 297 -803q0 -264 -143.5 -423t-385.5 -159q-236 0 -368.5 131.5t-132.5 385.5zM383 502 q0 -293 195 -293q109 0 154.5 76.5t45.5 226.5q0 143 -42 215t-148 72q-205 0 -205 -297z" />
<glyph unicode="&#xf1;" horiz-adv-x="1386" d="M61 0v164l175 55v666l-175 41v164l441 16l12 -141q57 53 158.5 105t218.5 52q147 0 227 -97t80 -267v-539l148 -55v-164h-558v164l107 55v492q0 74 -36 118.5t-101 44.5q-57 0 -112.5 -29.5t-82.5 -58.5l-26 -28v-539l108 -55v-164h-584zM272 1386q4 8 10.5 23.5t30 54.5 t51 68t71.5 53.5t93 24.5q74 0 175.5 -46t160.5 -46q35 0 71 21.5t56 41.5l19 23l108 -95q-4 -8 -11 -23.5t-30.5 -54t-51.5 -68.5t-73 -54.5t-92 -24.5q-74 0 -178 46t-164 46q-39 0 -77 -20.5t-56 -40.5l-16 -23z" />
<glyph unicode="&#xf2;" d="M72 543q0 274 149.5 428.5t403.5 154.5q248 0 382 -144t134 -409q0 -274 -148.5 -433.5t-398.5 -159.5q-522 0 -522 563zM289 1526l139 213l457 -365l-101 -149zM389 553q0 -176 51.5 -257t164 -81t165.5 80t53 268q0 166 -50 247t-159 81q-117 0 -171 -76t-54 -262z" />
<glyph unicode="&#xf3;" d="M72 543q0 274 149.5 428.5t403.5 154.5q248 0 382 -144t134 -409q0 -274 -148.5 -433.5t-398.5 -159.5q-522 0 -522 563zM334 1374l457 365l139 -213l-496 -301zM389 553q0 -176 51.5 -257t164 -81t165.5 80t53 268q0 166 -50 247t-159 81q-117 0 -171 -76t-54 -262z" />
<glyph unicode="&#xf4;" d="M72 543q0 274 149.5 428.5t403.5 154.5q248 0 382 -144t134 -409q0 -274 -148.5 -433.5t-398.5 -159.5q-522 0 -522 563zM174 1372l336 314l182 16l359 -330l-99 -135l-336 246l-344 -246zM389 553q0 -176 51.5 -257t164 -81t165.5 80t53 268q0 166 -50 247t-159 81 q-117 0 -171 -76t-54 -262z" />
<glyph unicode="&#xf5;" d="M72 543q0 274 149.5 428.5t403.5 154.5q248 0 382 -144t134 -409q0 -274 -148.5 -433.5t-398.5 -159.5q-522 0 -522 563zM182 1384q4 8 10 23.5t30.5 54.5t51.5 69t72 54.5t92 24.5q74 0 177 -47t163 -47q35 0 70.5 21.5t54.5 43.5l16 21l109 -95q-4 -8 -11.5 -23.5 t-31 -54t-51 -67.5t-71.5 -53.5t-91 -24.5q-74 0 -179.5 45t-164.5 45q-39 0 -76 -21.5t-55 -41.5l-19 -21zM389 553q0 -176 51.5 -257t164 -81t165.5 80t53 268q0 166 -50 247t-159 81q-117 0 -171 -76t-54 -262z" />
<glyph unicode="&#xf6;" d="M72 543q0 274 149.5 428.5t403.5 154.5q248 0 382 -144t134 -409q0 -274 -148.5 -433.5t-398.5 -159.5q-522 0 -522 563zM233 1429q0 72 44 116t108 44q72 0 109.5 -42t37.5 -118q0 -74 -44 -117t-107 -43q-148 0 -148 160zM389 553q0 -176 51.5 -257t164 -81t165.5 80 t53 268q0 166 -50 247t-159 81q-117 0 -171 -76t-54 -262zM680 1429q0 72 45 116t106 44q147 0 148 -160q0 -74 -44 -117t-108 -43q-147 0 -147 160z" />
<glyph unicode="&#xf7;" horiz-adv-x="1290" d="M106 426v236h1076v-236h-1076zM467 104q0 90 51 139.5t131 49.5q174 0 174 -189q0 -90 -50 -140t-130 -50q-176 0 -176 190zM467 985q0 90 51 139.5t131 49.5q174 0 174 -189q0 -90 -50 -140t-130 -50q-176 0 -176 190z" />
<glyph unicode="&#xf8;" horiz-adv-x="1232" d="M82 543q0 274 149.5 428.5t403.5 154.5q104 0 203 -32l133 223l153 -86l-133 -223q160 -143 160 -435q0 -274 -148.5 -433.5t-398.5 -159.5q-104 0 -211 28l-149 -248l-154 86l148 248q-156 137 -156 449zM399 551q0 -86 23 -150l283 473q-37 17 -80 17 q-119 0 -172.5 -78t-53.5 -262zM526 231q33 -16 88 -16q115 0 167.5 82t52.5 266q0 90 -23 144z" />
<glyph unicode="&#xf9;" horiz-adv-x="1341" d="M33 926v164l452 16v-703q0 -84 27 -123.5t88 -39.5q57 0 117.5 27.5t93.5 56.5l31 28v537l-152 37v164l453 16v-891l155 -41v-160l-417 -14l-21 143q-6 -6 -19.5 -17t-52 -40t-79.5 -50.5t-99.5 -38.5t-111.5 -17q-154 0 -235 96t-81 270v543zM311 1526l140 213l456 -365 l-100 -149z" />
<glyph unicode="&#xfa;" horiz-adv-x="1341" d="M33 926v164l452 16v-703q0 -84 27 -123.5t88 -39.5q57 0 117.5 27.5t93.5 56.5l31 28v537l-152 37v164l453 16v-891l155 -41v-160l-417 -14l-21 143q-6 -6 -19.5 -17t-52 -40t-79.5 -50.5t-99.5 -38.5t-111.5 -17q-154 0 -235 96t-81 270v543zM379 1374l457 365l139 -213 l-496 -301z" />
<glyph unicode="&#xfb;" horiz-adv-x="1341" d="M33 926v164l452 16v-703q0 -84 27 -123.5t88 -39.5q57 0 117.5 27.5t93.5 56.5l31 28v537l-152 37v164l453 16v-891l155 -41v-160l-417 -14l-21 143q-6 -6 -19.5 -17t-52 -40t-79.5 -50.5t-99.5 -38.5t-111.5 -17q-154 0 -235 96t-81 270v543zM213 1372l336 314l182 16 l359 -330l-99 -135l-336 246l-344 -246z" />
<glyph unicode="&#xfc;" horiz-adv-x="1341" d="M33 926v164l452 16v-703q0 -84 27 -123.5t88 -39.5q57 0 117.5 27.5t93.5 56.5l31 28v537l-152 37v164l453 16v-891l155 -41v-160l-417 -14l-21 143q-6 -6 -19.5 -17t-52 -40t-79.5 -50.5t-99.5 -38.5t-111.5 -17q-154 0 -235 96t-81 270v543zM270 1430q0 72 44 115.5 t108 43.5q72 0 109.5 -42t37.5 -117q0 -74 -44 -117t-107 -43q-148 0 -148 160zM717 1430q0 72 45 115.5t106 43.5q147 0 148 -159q0 -74 -44 -117t-108 -43q-147 0 -147 160z" />
<glyph unicode="&#xfd;" horiz-adv-x="1251" d="M20 932v164l547 10v-174l-114 -21l182 -573l174 567l-119 27v164l551 10v-174l-127 -27l-301 -839q-45 -121 -85 -204t-105.5 -172t-157.5 -135.5t-209 -46.5l-199 17l29 219h133q57 0 105.5 25.5t82 73.5t50.5 79t37 76l-365 901zM471 1374l457 365l139 -213l-496 -301z " />
<glyph unicode="&#xfe;" horiz-adv-x="1259" d="M51 1407v164l471 16v-579q12 12 36 32.5t99.5 53t155.5 32.5q201 0 308.5 -145t107.5 -397q0 -289 -146.5 -446.5t-437.5 -157.5q-25 0 -55.5 4t-48.5 8l-19 4v-266l215 -47v-164h-682v164l160 47v1636zM522 242q51 -27 156 -27q233 0 233 348q0 322 -200 322 q-55 0 -102.5 -24.5t-67.5 -49.5l-19 -23v-546z" />
<glyph unicode="&#xff;" horiz-adv-x="1251" d="M20 932v164l547 10v-174l-114 -21l182 -573l174 567l-119 27v164l551 10v-174l-127 -27l-301 -839q-45 -121 -85 -204t-105.5 -172t-157.5 -135.5t-209 -46.5l-199 17l29 219h133q57 0 105.5 25.5t82 73.5t50.5 79t37 76l-365 901zM233 1430q0 72 44.5 115.5t107.5 43.5 q72 0 109.5 -42t37.5 -117q0 -74 -44 -117t-107 -43q-148 0 -148 160zM252 1458q0 -160 147 -160q63 0 107.5 43t44.5 117q0 76 -38 118t-110 42q-63 0 -107 -44t-44 -116zM680 1430q0 72 45 115.5t106 43.5q147 0 148 -159q0 -74 -44 -117t-108 -43q-147 0 -147 160z M698 1458q0 -160 148 -160q63 0 107 43t44 117q0 160 -147 160q-61 0 -106.5 -44t-45.5 -116z" />
<glyph unicode="&#x152;" horiz-adv-x="1957" d="M106 711q0 352 182.5 552.5t493.5 200.5q61 0 185.5 -10t177.5 -10h686v-395h-191l-51 153h-332v-342h414v-225h-414v-395h363l47 170h188v-410h-737q-47 0 -178 -10t-199 -10q-309 0 -472 186t-163 545zM451 721q0 -252 74.5 -372t232.5 -120q41 0 107.5 5.5t74.5 5.5 v962q-57 8 -145 8q-176 0 -260 -107.5t-84 -381.5z" />
<glyph unicode="&#x153;" horiz-adv-x="1904" d="M76 543q0 272 149.5 427.5t399.5 155.5q244 0 381 -176q137 176 376 176q221 0 341 -129t120 -352l-12 -153l-680 -7q8 -127 74.5 -196.5t171.5 -69.5q74 0 139.5 17.5t126.5 46t78 32.5l88 -163q-23 -18 -64 -47t-161.5 -77t-235.5 -48q-256 0 -385 178 q-147 -178 -389 -178q-518 0 -518 563zM393 553q0 -176 52.5 -257t162.5 -81q115 0 170.5 81t55.5 267q-1 328 -216 328q-115 0 -170 -76t-55 -262zM1155 676h369q0 211 -168 211q-84 0 -136.5 -57.5t-64.5 -153.5z" />
<glyph unicode="&#x178;" horiz-adv-x="1366" d="M14 1264v170l580 10v-180l-105 -43l205 -445l217 443l-112 45v170l553 10v-180l-142 -56l-370 -706v-273l153 -51v-178h-624v178l153 51v271l-375 708zM303 1737q0 72 44 116t108 44q72 0 109.5 -42t37.5 -118q0 -74 -44 -117t-107 -43q-148 0 -148 160zM750 1737 q0 72 45 116t106 44q147 0 148 -160q0 -74 -44 -117t-108 -43q-147 0 -147 160z" />
<glyph unicode="&#x2c6;" horiz-adv-x="1114" d="M143 1436l314 268l182 16l332 -284l-99 -136l-309 201l-321 -201z" />
<glyph unicode="&#x2dc;" horiz-adv-x="1163" d="M164 1384q4 8 10 23.5t30.5 54.5t51.5 69t72 54.5t92 24.5q74 0 177 -47t163 -47q35 0 70.5 21.5t54.5 43.5l16 21l109 -95q-4 -8 -11.5 -23.5t-31 -54t-51 -67.5t-71.5 -53.5t-91 -24.5q-74 0 -179.5 45t-164.5 45q-39 0 -76 -21.5t-55 -41.5l-19 -21z" />
<glyph unicode="&#x2000;" horiz-adv-x="979" />
<glyph unicode="&#x2001;" horiz-adv-x="1958" />
<glyph unicode="&#x2002;" horiz-adv-x="979" />
<glyph unicode="&#x2003;" horiz-adv-x="1958" />
<glyph unicode="&#x2004;" horiz-adv-x="652" />
<glyph unicode="&#x2005;" horiz-adv-x="489" />
<glyph unicode="&#x2006;" horiz-adv-x="326" />
<glyph unicode="&#x2007;" horiz-adv-x="326" />
<glyph unicode="&#x2008;" horiz-adv-x="244" />
<glyph unicode="&#x2009;" horiz-adv-x="391" />
<glyph unicode="&#x200a;" horiz-adv-x="108" />
<glyph unicode="&#x2010;" horiz-adv-x="808" d="M117 430v256h579v-256h-579z" />
<glyph unicode="&#x2011;" horiz-adv-x="808" d="M117 430v256h579v-256h-579z" />
<glyph unicode="&#x2012;" horiz-adv-x="808" d="M117 430v256h579v-256h-579z" />
<glyph unicode="&#x2013;" horiz-adv-x="1024" d="M0 547v241h1024v-241h-1024z" />
<glyph unicode="&#x2014;" horiz-adv-x="1986" d="M0 547v241h1987v-241h-1987z" />
<glyph unicode="&#x2018;" horiz-adv-x="636" d="M127 1079q0 229 283 533l129 -105q-123 -164 -123 -247q0 -23 29.5 -78.5t29.5 -110.5q0 -82 -50 -132t-126 -50q-78 0 -125 49t-47 141z" />
<glyph unicode="&#x2019;" horiz-adv-x="636" d="M96 995q123 164 123 246q0 25 -29.5 80t-29.5 109q0 82 50 132t128 50t124 -49.5t46 -139.5q0 -229 -281 -534z" />
<glyph unicode="&#x201a;" horiz-adv-x="636" d="M96 -324q123 164 123 246q0 25 -29.5 80t-29.5 109q0 82 50 132t128 50t124 -49t46 -140q0 -229 -281 -534z" />
<glyph unicode="&#x201c;" horiz-adv-x="1112" d="M127 1079q0 229 283 533l129 -105q-123 -164 -123 -247q0 -23 29.5 -78.5t29.5 -110.5q0 -82 -50 -132t-126 -50q-78 0 -125 49t-47 141zM604 1079q0 227 281 533l131 -105q-123 -164 -123 -247q0 -23 29.5 -78.5t29.5 -110.5q0 -82 -50 -132t-128 -50t-124 49t-46 141z " />
<glyph unicode="&#x201d;" horiz-adv-x="1112" d="M96 995q123 164 123 246q0 25 -29.5 80t-29.5 109q0 82 50 132t128 50t124 -49.5t46 -139.5q0 -229 -281 -534zM573 995q123 164 123 246q0 25 -29.5 80t-29.5 109q0 82 50 132t126 50q78 0 125 -49.5t47 -139.5q0 -231 -283 -534z" />
<glyph unicode="&#x201e;" horiz-adv-x="1112" d="M96 -324q123 164 123 246q0 25 -29.5 80t-29.5 109q0 82 50 132t128 50t124 -49t46 -140q0 -229 -281 -534zM573 -324q123 164 123 246q0 25 -29.5 80t-29.5 109q0 82 50 132t126 50q78 0 125 -49t47 -140q0 -231 -283 -534z" />
<glyph unicode="&#x2022;" horiz-adv-x="1112" d="M164 645q0 160 113.5 273.5t273.5 113.5t273.5 -113.5t113.5 -273.5t-113.5 -273.5t-273.5 -113.5t-273.5 113.5t-113.5 273.5z" />
<glyph unicode="&#x2026;" horiz-adv-x="1597" d="M106 160q0 84 52.5 134t126.5 50q170 0 170 -184q0 -86 -51.5 -136.5t-124.5 -50.5q-84 0 -128.5 48.5t-44.5 138.5zM625 160q0 84 52 134t124 50q84 0 128 -48t44 -136q0 -86 -51.5 -136.5t-124.5 -50.5q-84 0 -128 48.5t-44 138.5zM1141 160q0 84 52 134t126 50 q170 0 170 -184q0 -86 -51.5 -136.5t-124.5 -50.5q-84 0 -128 48.5t-44 138.5z" />
<glyph unicode="&#x202f;" horiz-adv-x="391" />
<glyph unicode="&#x2039;" horiz-adv-x="694" d="M102 463v158l320 362l170 -113l-232 -327l232 -328l-170 -115z" />
<glyph unicode="&#x203a;" horiz-adv-x="694" d="M113 215l231 328l-231 327l170 113l319 -362v-158l-319 -363z" />
<glyph unicode="&#x205f;" horiz-adv-x="489" />
<glyph unicode="&#x20ac;" horiz-adv-x="1304" d="M55 453v184h881v-184h-393q61 -215 260 -215q78 0 159.5 28.5t124.5 57.5l43 30l113 -180q-8 -8 -22.5 -21.5t-63.5 -47t-102.5 -60.5t-134 -48.5t-162.5 -21.5q-141 0 -248 47.5t-166 126t-89 150.5t-46 154h-154zM55 766v184h148q18 102 58 189.5t107.5 164t175 120.5 t244.5 44q96 0 200 -21.5t159 -41.5l55 -23l-10 -338h-191l-32 144q-78 31 -191 31q-63 0 -111.5 -28t-73 -67t-40.5 -78.5t-21 -66.5l-4 -29h408v-184h-881z" />
<glyph unicode="&#x25fc;" horiz-adv-x="1105" d="M0 0v1106h1106v-1106h-1106z" />
<glyph unicode="&#xfb01;" horiz-adv-x="1550" d="M106 885v170l185 30v86q0 217 124 329t408 112q121 0 244 -19.5t186 -38.5l62 -18l-4 -289h-221l-27 129q-119 16 -219 17q-137 0 -193.5 -47.5t-56.5 -137.5v-123l762 21v-891l143 -51v-164h-588v164l144 51v670h-461v-670l149 -51v-164h-616v164l164 51v670h-185z" />
<glyph unicode="&#xfb02;" horiz-adv-x="1613" d="M106 881v174l185 30v97q0 430 518 430q125 0 262 -13.5t211 -25.5l76 -12v-1346l168 -51v-164h-615v164l140 51v1159q-117 18 -217 19q-240 0 -240 -174v-134h266l-6 -204h-260v-666l149 -51v-164h-616v164l164 51v666h-185z" />
</font>
</defs>
</svg>
