<?xml version="1.0" standalone="no"?>
<!DOCTYPE svg PUBLIC "-//W3C//DTD SVG 1.1//EN" "http://www.w3.org/Graphics/SVG/1.1/DTD/svg11.dtd">
<svg xmlns="http://www.w3.org/2000/svg">
<metadata>Generated by Fontastic.me</metadata>
<defs>
<font id="streamline-30px" horiz-adv-x="512">
<font-face font-family="streamline-30px" units-per-em="512" ascent="480" descent="-32"/>
<missing-glyph horiz-adv-x="512" />

<glyph unicode="&#57344;" d="M478 256l-26 0c-4 106-90 192-196 196l0 43c0 5-4 8-9 8c-4 0-8-3-8-8l0-43c-106-4-192-90-196-196l-34 0c-5 0-9-4-9-9c0-4 4-8 9-8l34 0c4-106 90-192 196-196l0-34c0-5 4-9 8-9c5 0 9 4 9 9l0 34c106 4 192 90 196 196l26 0c5 0 8 4 8 8c0 5-3 9-8 9z m-43 0l-86 0c-4 50-43 89-93 93l0 86c97-4 175-82 179-179z m-196 0l-76 0c4 40 36 72 76 76z m0-17l0-76c-40 4-72 36-76 76z m17 0l76 0c-4-40-36-72-76-76z m0 17l0 76c40-4 72-36 76-76z m-17 179l0-86c-50-4-89-43-93-93l-86 0c4 97 82 175 179 179z m-179-196l85 0c5-50 44-89 94-94l0-85c-97 4-175 82-179 179z m196-179l0 85c50 5 89 44 93 94l86 0c-4-97-82-175-179-179z"/>
<glyph unicode="&#57345;" d="M478 256l-43 0c-4 97-82 175-179 179l0 60c0 5-4 8-9 8c-4 0-8-3-8-8l0-60c-97-4-175-82-179-179l-51 0c-5 0-9-4-9-9c0-4 4-8 9-8l51 0c4-97 82-175 179-179l0-51c0-5 4-9 8-9c5 0 9 4 9 9l0 51c97 4 175 82 179 179l43 0c5 0 8 4 8 8c0 5-3 9-8 9z m-222-179l0 51c0 5-4 9-9 9c-4 0-8-4-8-9l0-51c-87 5-157 75-162 162l51 0c5 0 9 4 9 8c0 5-4 9-9 9l-51 0c5 87 75 157 162 162l0-43c0-4 4-8 8-8c5 0 9 4 9 8l0 43c87-5 157-75 162-162l-60 0c-4 0-8-4-8-9c0-4 4-8 8-8l60 0c-5-87-75-157-162-162z"/>
<glyph unicode="&#57346;" d="M256 316l0 170c0 5-4 9-9 9c-4 0-8-4-8-9l0-170c0-5 4-9 8-9c5 0 9 4 9 9z m-77-77c5 0 9 4 9 8c0 5-4 9-9 9l-170 0c-5 0-9-4-9-9c0-4 4-8 9-8z m60-60l0-170c0-5 4-9 8-9c5 0 9 4 9 9l0 170c0 5-4 9-9 9c-4 0-8-4-8-9z m247 77l-170 0c-5 0-9-4-9-9c0-4 4-8 9-8l170 0c5 0 9 4 9 8c0 5-4 9-9 9z m-221-9c0-9-8-17-18-17c-9 0-17 8-17 17c0 10 8 18 17 18c10 0 18-8 18-18z"/>
<glyph unicode="&#57347;" d="M461 495c5 0 8 4 8 8c0 5-3 9-8 9l-410 0c-5 0-8-4-8-9c0-4 3-8 8-8l27 0l8-93c-1 0-1-1-1-1c0-1 1-1 1-2l34-391c0-1 0-1 0-2c0 0 0-1 0-1c1-1 1-1 1-2c1 0 1 0 1-1c1 0 1 0 2-1c0 0 0 0 1 0c1-1 2-1 3-1c0 0 0 0 0 0l256 0c0 0 0 0 0 0c1 0 2 0 3 1c1 0 1 0 1 0c1 1 1 1 2 1c0 1 0 1 1 1c0 1 0 1 1 2c0 0 0 1 0 1c0 1 0 1 1 2l33 391c0 1 1 1 1 2c0 0 0 1-1 1l8 93z m-63-222l-77 0l6 120l82 0z m-10-119l-73 0l5 102l77 0z m-12-137l-68 0l6 120l72 0z m-179 137l-73 0l-9 102l77 0z m12 102l94 0l-5-102l-84 0z m-95 17l-11 120l82 0l6-120z m12-136l72 0l6-120l-68 0z m89 0l82 0l-6-120l-70 0z m89 136l-96 0l-6 120l108 0z m-103 137l-4 85l118 0l-4-85z m-21 85l4-85l-82 0l-7 85z m230-85l-82 0l4 85l85 0z"/>
<glyph unicode="&#57348;" d="M503 444l-145 0l0 59c0 5-3 9-8 9l-188 0c-5 0-8-4-8-9l0-59l-145 0c-5 0-9-4-9-9c0-5 4-8 9-8l59 0l0-418c0-5 4-9 9-9l358 0c5 0 9 4 9 9l0 418l59 0c5 0 9 3 9 8c0 5-4 9-9 9z m-332 51l170 0l0-51l-170 0z m256-478l-342 0l0 410l342 0z m-265 333c-5 0-8-4-8-9l0-239c0-4 3-8 8-8c5 0 9 4 9 8l0 239c0 5-4 9-9 9z m94 0c-5 0-9-4-9-9l0-239c0-4 4-8 9-8c5 0 9 4 9 8l0 239c0 5-4 9-9 9z m85-9l0-239c0-4 4-8 9-8c5 0 8 4 8 8l0 239c0 5-3 9-8 9c-5 0-9-4-9-9z"/>
<glyph unicode="&#57349;" d="M494 202l-68 154c0 1-1 2-2 2l-33 33l-30 84c-1 1-1 2-2 3c-20 19-64 19-83 0c-2-2-3-4-3-6l0-86c0-4 4-8 9-8c4 0 8 4 8 8l0 82c14 10 43 10 56-1l30-83c0-2 1-3 2-4l33-33l49-109c-19 13-43 20-67 20c-44 0-82-23-103-58l0 123c27-6 43-18 43-30c0-5 4-9 8-9c5 0 9 4 9 9c0 29-40 51-94 51c-54 0-94-22-94-51c0-5 4-9 9-9c4 0 8 4 8 9c0 12 16 24 43 30l0-123c-21 35-59 58-103 58c-24 0-48-7-67-20l49 109l33 33c1 1 1 2 2 3l33 84c13 11 39 11 53 1l0-82c0-4 4-8 8-8c5 0 9 4 9 8l0 86c0 2-1 4-3 6c-19 19-60 19-80 0c-1-1-1-2-2-3l-33-84l-33-33c-1 0-2-1-2-2l-68-154c0 0 0-1 0-1c-12-18-18-39-18-62c0-66 54-119 119-119c66 0 120 53 120 119l0 187c5 0 11 1 17 1c6 0 12-1 17-1l0-187c0-66 54-119 120-119c65 0 119 53 119 119c0 23-6 44-18 62c0 0 0 1 0 1z m-375-165c-56 0-102 46-102 102c0 56 46 102 102 102c57 0 103-46 103-102c0-56-46-102-103-102z m274 0c-57 0-103 46-103 102c0 56 46 102 103 102c56 0 102-46 102-102c0-56-46-102-102-102z m-277 172c-40 0-73-33-73-73c0-5 4-9 9-9c4 0 8 4 8 9c0 31 25 56 56 56c5 0 9 4 9 8c0 5-4 9-9 9z m280 0c-40 0-73-33-73-73c0-5 4-9 8-9c5 0 9 4 9 9c0 31 25 56 56 56c5 0 8 4 8 8c0 5-3 9-8 9z"/>
<glyph unicode="&#57350;" d="M487 402c-11 6-23 7-35 4c-2 8-7 16-15 23c-21 16-57 21-90 16c-13 26-46 58-91 58c-42 0-85-30-99-59c-27 4-54 0-74-12c-11-7-18-16-21-27c-13 4-26 4-37-3c-16-9-25-28-25-52c0-19 7-34 21-41c14-7 34-6 52 3c8-14 23-25 44-32c14-5 30-8 46-8c16 0 31 3 42 9c3-1 5-3 8-4c10-11 10-21 9-45c0-4 0-8 0-12c-11 2-23 0-33-6c-17-8-27-25-27-43c0-16 7-29 21-36c8-5 17-7 26-7c4 0 8 1 12 1c-4-53-52-61-98-69c-39-6-80-13-80-51c0-5 4-9 9-9l408 0c5 0 9 4 9 9c0 38-41 45-80 51c-46 8-94 16-98 69c4 0 8-1 12-1c9 0 18 2 26 6c14 8 21 21 21 37c0 18-10 35-27 43c-10 6-22 8-33 6c0 4 0 8 0 12c-1 24-1 34 9 45c3 1 5 3 8 4c11-6 27-9 44-9c12 0 24 2 36 4c16 4 36 12 50 28c15-9 32-11 47-4c17 9 28 27 28 50c0 24-9 43-25 52z m-214-170c0-5 0-11 0-17c-2-1-3-2-5-3c-4-3-5-8-2-12c3-4 8-5 12-2c11 7 25 8 37 1c11-6 18-16 18-28c0-12-7-19-12-22c-12-6-29-5-44 3c-4 3-9 2-11-3c-3-4-1-9 3-11c1-1 3-2 4-3c1-72 63-83 113-92c35-5 59-10 64-26l-388 0c5 16 29 21 64 26c50 9 112 20 113 92c1 1 3 2 4 3c4 2 6 7 3 11c-2 5-7 6-11 3c-15-8-32-9-44-3c-5 3-12 10-12 22c0 12 7 22 18 28c12 7 26 6 37-1c4-3 9-2 12 2c3 4 2 9-2 12c-2 1-3 2-5 3c0 6 0 12 0 17c0 17 1 29-3 40c6-1 13-1 20-1c7 0 14 0 20 1c-4-11-3-23-3-40z m204 84c-12-5-25-3-36 6c-2 2-5 3-7 2c-3 0-5-2-6-4c-8-12-24-22-45-27c-29-7-59-3-71 4c-1 1-1 1-1 1c-1 0-1 0-2 0c0 0-1 1-1 1c-1 0-1 0-2-1c-1 0-1 0-2 0c0 0 0 0-1 0c0 0 0 0 0-1c-4 2-8 2-10-1c-2-1-3-2-4-4c-21-6-45-6-66 0c-1 2-2 3-4 4c-2 3-6 3-10 1c0 1 0 1 0 1c-1 0-1 0-1 0c-1 0-1 0-2 0c-1 1-1 1-2 1c0 0-1-1-1-1c-1 0-1 0-2 0c0 0 0 0-1-1c-16-10-51-10-78-1c-19 7-32 18-37 31c-1 3-3 5-6 5c-2 1-5 1-7-1c-15-10-33-12-43-7c-8 4-12 13-12 26c0 18 6 32 17 38c8 4 19 4 30-3c17-10 21-17 22-20c1-4 4-7 8-7c1 0 1 1 2 1c5 1 7 6 6 10c-3 10-11 19-25 28c2 8 7 15 16 21c23 14 63 15 91 1c4-2 9 0 11 4c2 4 1 9-4 11c-5 3-11 5-17 7c13 20 47 45 82 45c34 0 62-24 74-45c-7-2-13-4-18-7c-4-2-6-7-4-11c2-4 7-6 11-4c8 4 16 6 25 8c0 0 0 0 0 0c0 0 0 0 0 0c31 7 66 1 82-12c7-5 10-11 10-17c-11-7-22-20-25-27c-3-4-1-9 3-12c1 0 3-1 4-1c3 0 6 2 8 5c3 6 14 18 21 22c1 0 1 0 1 0c0 0 0 0 0 0c11 7 22 7 30 2c11-6 17-19 17-37c0-16-7-29-18-34z"/>
<glyph unicode="&#57351;" d="M32 57c18-18 42-27 65-27c24 0 48 9 67 28l247 247c10 10 15 23 15 36c0 13-5 26-15 36c-10 10-22 15-36 15c-13 0-26-5-36-15l-179-179c-3-4-3-9 0-12c3-4 9-4 12 0l179 179c13 13 35 13 48 0c6-7 10-15 10-24c0-9-4-17-10-24l-248-247c-30-31-77-31-107-1c-30 30-30 78 0 108l256 256c21 21 49 32 79 32c31 0 59-11 80-32c20-21 32-47 32-75c0-28-12-54-32-75l-185-184c-3-3-3-9 0-12c4-3 9-3 12 0l185 184c24 24 37 55 37 87c0 32-13 63-37 87c-24 24-57 37-92 37c-35 0-67-13-91-37l-256-256c-37-37-37-95 0-132z"/>
<glyph unicode="&#57352;" d="M249 495c63 0 109-51 109-121l0-193c0-5 4-9 9-9c5 0 8 4 8 9l0 193c0 80-53 138-126 138c-74 0-130-59-130-138l0-269c0-61 41-105 97-105c55 0 91 42 91 105l0 214c0 46-22 74-58 74c-37 0-61-29-61-74l0-171c0-4 4-8 8-8c5 0 9 4 9 8l0 171c0 14 3 56 44 56c36 0 41-35 41-56l0-214c0-40-19-88-74-88c-46 0-79 37-79 88l0 269c0 69 48 121 112 121z"/>
<glyph unicode="&#57353;" d="M430 461c-13 0-23-4-31-12l-384-384c-3-2-3-6-2-9c2-3 5-5 8-5c0 0 1 0 1 0l179 26c2 0 4 1 5 2l282 282c20 20 12 59-9 80c-12 12-31 20-49 20z m-277-282l22 22l64-65l-22-22z m34 34l22 22l65-65l-23-22z m9-120l-151-21l96 95l22-22l-29-28c-3-4-3-9 0-12c2-2 4-3 7-3c2 0 4 1 6 3l28 28l30-31z m280 280l-190-191l-65 65l190 190c6 6 13 7 19 7c13 0 28-6 37-15c15-14 21-44 9-56z"/>
<glyph unicode="&#57354;" d="M437 437c0 0 0 0-1 0c-46 46-110 75-180 75c-70 0-134-29-180-75c-1 0-1 0-1 0c0 0 0 0 0-1c-46-46-75-110-75-180c0-70 29-134 75-180c0-1 0-1 0-1c0 0 0 0 1 0c46-46 110-75 180-75c70 0 134 29 180 75c1 0 1 0 1 0c0 0 0 0 0 1c46 46 75 110 75 180c0 70-29 134-75 180c0 1 0 1 0 1z m-18-6l-163-163l-163 163c43 40 100 64 163 64c63 0 120-24 163-64z m-338-12l163-163l-163-163c-40 43-64 100-64 163c0 63 24 120 64 163z m12-338l163 163l163-163c-43-40-100-64-163-64c-63 0-120 24-163 64z m338 12l-163 163l163 163c40-43 64-100 64-163c0-63-24-120-64-163z"/>
<glyph unicode="&#57355;" d="M256 0c141 0 256 115 256 256c0 141-115 256-256 256c-141 0-256-115-256-256c0-141 115-256 256-256z m0 495c132 0 239-107 239-239c0-132-107-239-239-239c-132 0-239 107-239 239c0 132 107 239 239 239z m-138-346l245 245l-8 6c-26 17-60 27-99 27c-96 0-171-75-171-171c0-39 10-73 27-99z m138 261c31 0 58-7 80-19l-215-215c-12 22-19 49-19 80c0 86 68 154 154 154z m-99-298c26-17 60-27 99-27c96 0 171 75 171 171c0 39-10 73-27 99l-6 8l-245-245z m234 224c12-22 19-49 19-80c0-86-68-154-154-154c-31 0-58 7-80 19z"/>
<glyph unicode="&#57356;" d="M503 256l-86 0c-4 0-8-4-8-9c0-4 4-8 8-8l78 0l0-171l-478 0l0 171l131 0c5 0 9 4 9 8c0 5-4 9-9 9l-139 0c-5 0-9-4-9-9l0-187c0-5 4-9 9-9l494 0c5 0 9 4 9 9l0 187c0 5-4 9-9 9z m-315-119c1 0 2 0 3 0l94 43c1 0 2 1 3 2l187 187c4 4 4 9 0 12l-59 60c-4 4-9 4-12 0l-188-188c-1 0-2-1-2-3c0 0 0 0 0 0l-34-102c-1-3 0-7 2-9c2-2 4-2 6-2z m187 252l48-48l-141-141l-48 47z m35 34l47-48l-22-22l-47 48z m-184-191l41-42l-65-29z"/>
<glyph unicode="&#57357;" d="M356 424c-3 4-9 4-12 0l-188-188c-1 0-1-1-2-2c0-1 0-1 0-1l-43-110c-1-4 0-7 2-10c2-1 4-2 6-2c2 0 3 0 4 0l110 43c0 0 1 0 1 0c1 1 2 1 2 2l188 188c4 3 4 9 0 12z m-126-250l-56 56l142 142l56-56z m-65 41l50-50l-81-31z m219 113l-56 56l22 22l56-56z m-128 184c-141 0-256-115-256-256c0-141 115-256 256-256c141 0 256 115 256 256c0 141-115 256-256 256z m0-495c-132 0-239 107-239 239c0 132 107 239 239 239c132 0 239-107 239-239c0-132-107-239-239-239z"/>
<glyph unicode="&#57358;" d="M9 0l409 0c5 0 9 4 9 9l0 270c0 4-4 8-9 8c-5 0-8-4-8-8l0-262l-393 0l0 427l337 0c5 0 9 4 9 8c0 5-4 9-9 9l-345 0c-5 0-9-4-9-9l0-443c0-5 4-9 9-9z m240 295l-25-60c-2-3-1-7 2-9c1-2 3-3 6-3c1 0 2 0 3 1l60 25c1 1 2 1 2 2l205 205c9 9 11 21 6 32c-5 13-19 23-32 23c-7 0-14-3-20-9l-205-205c-1 0-1-1-2-2z m219 195c2 3 5 4 8 4c7 0 14-6 17-12c2-6 1-10-3-14l-19-20l-23 23z m-32-32l22-22l-172-172l-38-16l16 38z"/>
<glyph unicode="&#57359;" d="M180 126c-2-4 1-9 5-10c24-8 52-9 71-9c73 0 138 38 180 70c45 34 73 68 74 69c3 4 3 8 0 11c-1 2-34 40-87 78c-4 3-9 2-12-1c-3-4-2-10 2-12c40-29 68-59 79-70c-22-25-120-128-236-128c-18 0-44 1-66 8c-4 1-9-1-10-6z m-178 131c-3-3-3-8 0-11c28-36 33-39 65-61c6-5 13-10 22-16c1-1 3-2 5-2c3 0 5 1 7 4c3 3 2 9-2 12c-9 6-16 11-22 15c-29 21-34 25-58 54c22 25 121 136 237 136c17 0 31-3 47-8l2 0c5-1 9 2 10 6c2 5-1 9-6 11l-1 0c-17 4-33 8-52 8c-139 0-250-142-254-148z m177-5c0 43 34 77 77 77c5 0 9 3 9 8c0 5-4 9-9 9c-53 0-94-42-94-94c0-5 4-9 9-9c4 0 8 4 8 9z m171 8c0 5-4 9-9 9c-4 0-8-4-8-9c0-43-34-77-77-77c-5 0-9-3-9-8c0-5 4-9 9-9c53 0 94 42 94 94z m105 211l-410-418c-3-3-3-9 0-12c2-2 4-3 6-3c2 0 5 1 6 3l410 418c3 3 3 9 0 12c-4 3-9 3-12 0z"/>
<glyph unicode="&#57360;" d="M11 0l273 0c5 0 8 4 8 9c0 75-39 123-102 127l0 18l8 0c5 0 9 3 9 8l0 34c0 5-4 9-9 9l-102 0c-5 0-8-4-8-9l0-34c0-5 3-8 8-8l9 0l0-18c-64-4-103-52-103-127c0-5 4-9 9-9z m102 119c5 0 9 4 9 9l0 34c0 5-4 9-9 9l-8 0l0 17l85 0l0-17l-9 0c-4 0-8-4-8-9l0-34c0-5 4-9 8-9c57 0 91-38 94-102l-256 0c3 64 38 102 94 102z m316 384c0 3-2 6-4 8c-3 1-6 1-8 0c-23-11-58-34-92-68c-65-65-93-134-70-169l-28-29c-4-3-4-9 0-12c1-2 3-3 6-3c2 0 4 1 6 3l28 29c12-8 27-13 45-13c0 0 1 0 1 0c41 1 86 23 122 61c2 2 3 6 2 9c-2 3-5 5-8 5l-99 0l18 18c1 0 3-1 4-1l102 0c5 0 9 4 9 9c0 5-4 8-9 8l-90 0l17 17l99 0c3 0 6 2 8 5c27 60 29 99 7 121c-4 3-9 3-12 0l-54-54z m-92-72c27 26 55 46 75 58l0-59l-40-40c0 0 0 0 0 0l-69-68c0 0 0 0 0 0l-35-36c-15 29 14 89 69 145z m71-124c-30-25-64-40-95-41c-14 0-25 3-33 8l33 33z m67 86l-77 0l28 28c0 0 0 0 0 0l62 61c9-17 5-47-13-89z"/>
<glyph unicode="&#57361;" d="M111 162c-24 0-43-19-43-43c0-23 19-42 43-42c23 0 43 19 43 42c0 24-20 43-43 43z m0-68c-14 0-26 11-26 25c0 15 12 26 26 26c14 0 26-11 26-26c0-14-12-25-26-25z m126 215c-20 10-46 15-75 15c-89 0-162-72-162-162c0-89 73-162 162-162c90 0 162 73 162 162c0 22-5 45-15 67l61 61l40 0l0 39l3 4l39 0l0 39l4 3l39 0l0 40l17 21l0 76l-72 0z m258 186l0-53l-17-21l0-28l-29 0l-14-14l0-29l-29 0l-13-14l0-29l-30 0l-75-75l3-5c11-22 16-43 16-65c0-80-65-145-145-145c-80 0-145 65-145 145c0 80 65 145 145 145c29 0 54-5 73-16l5-3l207 207z"/>
<glyph unicode="&#57362;" d="M137 200c-33 0-60-26-60-59c0-33 27-60 60-60c32 0 59 27 59 60c0 33-27 59-59 59z m0-102c-24 0-43 19-43 43c0 23 19 42 43 42c23 0 42-19 42-42c0-24-19-43-42-43z m347 335c15 15 15 40 0 55c-7 7-17 11-27 11c-11 0-20-4-28-11l-234-234c-18 10-38 15-58 15c-71 0-128-58-128-128c0-71 57-128 128-128c70 0 128 57 128 128c0 20-5 40-15 58l108 109l43-43l38 38l-43 42l22 22l51-51l38 38l-51 51z m-1-79l-14-14l-51 52l-46-47l43-42l-14-14l-43 43l-129-130l3-5c10-17 15-37 15-56c0-62-49-111-110-111c-62 0-111 49-111 111c0 61 49 111 111 111c19 0 38-6 56-16l5-3l243 243c9 8 23 8 31 0c8-9 8-22 0-31l-40-40z"/>
<glyph unicode="&#57363;" d="M452 341l-121 0c-28 0-49-22-49-51c0-5 3-8 8-8c5 0 9 3 9 8c0 20 14 34 32 34l121 0c24 0 43-19 43-42l0-52c0-23-19-42-43-42l-121 0c-28 0-32 4-32 17c0 5-4 8-9 8c-5 0-8-3-8-8c0-34 30-34 49-34l121 0c33 0 60 26 60 59l0 52c0 33-27 59-60 59z m-392-170l121 0c19 0 49 0 49 34c0 5-3 8-8 8c-5 0-9-3-9-8c0-13-4-17-32-17l-121 0c-24 0-43 19-43 42l0 52c0 23 19 42 43 42l121 0c18 0 32-14 32-34c0-5 4-8 9-8c5 0 8 3 8 8c0 29-21 51-49 51l-121 0c-33 0-60-26-60-59l0-52c0-33 27-59 60-59z m68 76c0-4 4-8 9-8l238 0c5 0 9 4 9 8c0 5-4 9-9 9l-238 0c-5 0-9-4-9-9z"/>
<glyph unicode="&#57364;" d="M361 245c-6-6-13-8-21-7c-9 1-18 7-27 15c-3 4-8 4-12 0c-3-3-3-8 0-12c12-11 24-18 37-20c2 0 4 0 6 0c11 0 21 4 29 12l100 100c24 24 24 61 0 85l-55 55c-12 12-27 18-43 18c-16 0-31-6-42-18l-100-100c-10-10-14-22-12-35c2-13 9-25 20-37c4-3 9-3 13 0c3 4 3 9 0 12c-9 9-15 18-16 27c-1 8 1 15 7 21l100 100c8 8 19 13 30 13c12 0 23-5 31-13l55-55c17-17 17-44 0-61z m-196-80c1-2 3-3 6-3c2 0 4 1 6 3l170 170c4 4 4 9 0 12c-3 4-8 4-12 0l-170-170c-4-4-4-9 0-12z m-26 114l-100-99c-11-11-18-26-18-42c0-16 6-31 18-43l56-56c12-12 27-18 43-18c0 0 0 0 0 0c16 0 31 7 42 18l99 100c10 10 14 22 12 35c-2 13-9 25-20 37c-4 3-9 3-12 0c-4-4-4-9 0-12c8-9 14-18 15-27c1-8-1-15-7-21l-99-100c-8-8-19-13-30-13c0 0 0 0 0 0c-12 0-23 5-31 13l-56 56c-8 8-13 19-13 31c0 11 5 22 13 30l100 99c15 14 34 5 48-9c3-3 9-3 12 0c3 4 3 9 0 13c-24 24-53 27-72 8z"/>
<glyph unicode="&#57365;" d="M173 298l-94-94c-28-29-28-77 0-106l17-17c14-14 31-21 50-21c2 0 3 0 5 0c21 1 42 12 60 29l68 69c3 3 3 8 0 12c-3 3-9 3-12 0l-68-69c-15-14-32-23-49-24c-16-1-31 5-42 16l-17 17c-21 22-21 60 0 82l94 94c16 16 33 23 50 22c17-1 35-12 48-30c3-4 8-5 12-2c4 3 5 8 2 12c-17 23-38 36-61 37c-21 2-43-8-63-27z m145-77c-9-10-23-14-37-13c-14 2-28 9-35 20c-3 4-8 5-12 2c-4-2-5-7-2-11c10-16 28-26 48-28c2 0 4 0 6 0c17 0 33 6 44 18l103 102c13 14 21 31 21 49c0 17-8 35-21 49l-17 17c-14 14-33 23-52 25c-21 3-41-3-54-17l-77-77c-3-3-3-8 0-12c3-3 9-3 12 0l77 77c10 10 24 14 40 12c15-2 30-9 42-20l17-18c10-10 16-23 16-36c0-13-6-26-16-37z"/>
<glyph unicode="&#57366;" d="M137 401c2 0 4 1 6 3c3 3 3 8 0 12l-43 42c-3 4-9 4-12 0c-4-3-4-8 0-12l43-42c1-2 3-3 6-3z m51 77l0-51c0-5 4-9 8-9c5 0 9 4 9 9l0 51c0 5-4 8-9 8c-4 0-8-3-8-8z m-128-120c-5 0-9-3-9-8c0-5 4-9 9-9l51 0c5 0 8 4 8 9c0 5-3 8-8 8z m108-330l68 68c4 4 4 9 0 12c-3 4-8 4-12 0l-68-68c-31-31-68-31-99 0l-17 17c-31 31-31 68 0 99l68 68c4 4 4 9 0 12c-3 4-8 4-12 0l-68-68c-37-37-37-85 0-123l17-17c19-19 40-28 62-28c21 0 42 9 61 28z m259 330l-94 0c-5 0-9-3-9-8c0-5 4-9 9-9l94 0c35 0 68-37 68-76l0-43c0-37-31-68-68-68l-94 0c-5 0-9-4-9-9c0-5 4-8 9-8l94 0c46 0 85 39 85 85l0 43c0 48-41 93-85 93z"/>
<glyph unicode="&#57367;" d="M413 358l-82 0c-4 0-8-3-8-8c0-5 4-9 8-9l82 0c41 0 73-34 73-76l0-18c0-42-32-76-72-76l-81 0c-5 0-9-4-9-9c0-5 4-8 9-8l81 0c49 0 89 42 89 93l0 18c0 51-40 93-90 93z m-404-93l0-18c0-51 40-93 89-93l81 0c5 0 9 3 9 8c0 5-4 9-9 9l-81 0c-40 0-72 34-72 76l0 18c0 42 32 76 73 76l82 0c4 0 8 4 8 9c0 5-4 8-8 8l-82 0c-50 0-90-42-90-93z m247 110c5 0 9 4 9 9l0 68c0 5-4 9-9 9c-5 0-9-4-9-9l0-68c0-5 4-9 9-9z m74 11l34 35c4 3 4 8 0 12c-3 3-8 3-12 0l-34-34c-3-4-3-9 0-13c2-1 4-2 6-2c2 0 5 1 6 2z m-162 47c-3 3-9 3-12 0c-3-3-3-9 0-12l34-34c2-2 4-3 6-3c2 0 5 1 6 2c4 4 4 9 0 13z m79-373c0-5 4-9 9-9c5 0 9 4 9 9l0 68c0 5-4 9-9 9c-5 0-9-4-9-9z m63 57c-4-3-4-9 0-12l34-34c1-2 4-3 6-3c2 0 4 1 6 3c3 3 3 8 0 12l-34 34c-4 3-9 3-12 0z m-120 0l-34-34c-3-4-3-9 0-12c2-2 4-3 6-3c2 0 5 1 6 3l34 34c4 3 4 9 0 12c-3 3-8 3-12 0z"/>
<glyph unicode="&#57368;" d="M265 188c-10 0-18-8-18-17c0-7 4-12 9-15c0-1 0-2 0-2l0-60c0-5 4-9 9-9c4 0 8 4 8 9l0 60c0 0 0 1 0 2c5 3 9 8 9 15c0 9-8 17-17 17z m128 205c0 62-61 119-128 119c-67 0-128-57-128-119l0-110c-27-30-43-69-43-112c0-94 76-171 171-171c94 0 170 77 170 171c0 43-16 82-42 112z m-128 102c57 0 110-50 110-102l0-93c-29 26-68 41-110 41c-43 0-82-15-111-41l0 93c0 52 54 102 111 102z m0-478c-85 0-154 69-154 154c0 84 69 153 154 153c84 0 153-69 153-153c0-85-69-154-153-154z"/>
<glyph unicode="&#57369;" d="M239 173l0-58c0-5 4-9 8-9c5 0 9 4 9 9l0 58c5 3 9 8 9 15c0 9-8 17-18 17c-9 0-17-8-17-17c0-7 4-12 9-15z m136 202c0 66-51 137-128 137c-76 0-128-71-128-137l0-68l-51 0l0-307l359 0l0 307l-52 0z m-238 0c0 58 44 120 110 120c67 0 111-62 111-120l0-68l-221 0z m273-358l-325 0l0 273l325 0z"/>
<glyph unicode="&#57370;" d="M358 309l0 92c0 60-45 102-111 102c-60 0-107-43-110-102l0-92c-37-32-60-78-60-130c0-94 76-170 170-170c95 0 171 76 171 170c0 52-23 98-60 130z m-204 92c2 42 35 85 93 85c57 0 94-34 94-85l0-79c-27 17-59 28-94 28c-34 0-66-11-93-28z m93-375c-84 0-153 69-153 153c0 85 69 154 153 154c85 0 154-69 154-154c0-84-69-153-154-153z m9 247l0 17c0 5-4 9-9 9c-4 0-8-4-8-9l0-17c-45-4-81-40-85-85l-17 0c-5 0-9-4-9-9c0-5 4-8 9-8l17 0c4-45 40-81 85-85l0-18c0-4 4-8 8-8c5 0 9 4 9 8l0 18c45 4 81 40 85 85l17 0c5 0 9 3 9 8c0 5-4 9-9 9l-17 0c-4 45-40 81-85 85z m0-170l0 8c0 5-4 8-9 8c-4 0-8-3-8-8l0-8c-36 4-64 32-68 68l8 0c5 0 9 3 9 8c0 5-4 9-9 9l-8 0c4 35 32 64 68 67l0-8c0-4 4-8 8-8c5 0 9 4 9 8l0 8c36-3 64-32 68-67l-8 0c-5 0-9-4-9-9c0-5 4-8 9-8l8 0c-4-36-32-64-68-68z m9 76c0-9-8-17-18-17c-9 0-17 8-17 17c0 10 8 17 17 17c10 0 18-7 18-17z"/>
<glyph unicode="&#57371;" d="M256 512c-141 0-256-115-256-256c0-141 115-256 256-256c141 0 256 115 256 256c0 141-115 256-256 256z m0-495c-132 0-239 107-239 239c0 132 107 239 239 239c132 0 239-107 239-239c0-132-107-239-239-239z m85 308c0 46-39 85-85 85c-46 0-85-39-85-86c0-30 16-57 41-72l-33-156c0-3 0-6 2-8c2-2 4-3 7-3l145 0c2 0 5 2 7 4c1 2 2 4 1 7l-41 156c25 15 41 43 41 73z m-55-61c-3-2-5-6-4-10l40-152l-124 0l32 152c1 4-1 8-4 10c-23 11-38 35-38 60c0 37 31 69 68 69c37 0 68-32 68-68c0-26-15-50-38-61z"/>
<glyph unicode="&#57372;" d="M324 333c0 46-39 85-85 85c-46 0-85-39-85-85c0-30 16-58 41-73l-33-156c0-2 0-5 2-7c2-2 4-3 7-3l145 0c2 0 5 1 6 3c2 2 3 5 2 8l-41 155c25 15 41 43 41 73z m-55-61c-3-2-5-6-4-10l40-151l-124 0l32 152c1 4-1 7-4 9c-23 11-38 35-38 61c0 37 31 68 68 68c37 0 68-31 68-68c0-26-15-50-38-61z m175 214l-393 0c-19 0-34-15-34-34l0-392c0-19 15-34 34-34l393 0c19 0 34 15 34 34l0 392c0 19-15 34-34 34z m17-426c0-10-8-17-17-17l-393 0c-9 0-17 7-17 17l0 392c0 10 8 17 17 17l393 0c9 0 17-7 17-17z"/>
<glyph unicode="&#57373;" d="M247 188c-9 0-17-8-17-17c0-7 4-12 9-15l0-62c0-5 4-9 8-9c5 0 9 4 9 9l0 62c5 3 9 8 9 15c0 9-8 17-18 17z m128 213c0 62-52 111-119 111c-64 0-111-47-111-111l17 0c0 54 40 94 94 94c57 0 102-41 102-94l0-101c-29 26-68 41-111 41c-94 0-170-76-170-170c0-94 76-171 170-171c95 0 171 77 171 171c0 43-16 82-43 112z m-128-384c-84 0-153 69-153 154c0 84 69 153 153 153c85 0 154-69 154-153c0-85-69-154-154-154z"/>
<glyph unicode="&#57374;" d="M239 173l0-58c0-5 4-9 8-9c5 0 9 4 9 9l0 58c5 3 9 8 9 15c0 9-8 17-18 17c-9 0-17-8-17-17c0-7 4-12 9-15z m136 202c0 66-51 137-128 137c-76 0-128-71-128-137l18 0c0 58 44 120 110 120c67 0 111-62 111-120l0-68l-290 0l0-307l359 0l0 307l-52 0z m35-358l-325 0l0 273l325 0z"/>
<glyph unicode="&#57375;" d="M313 211c0 0-1 1-2 1c29 32 47 74 47 121c0 99-80 179-179 179c-99 0-179-80-179-179c0-99 80-179 179-179c47 0 89 18 121 47c0-1 1-2 1-2l196-197c2-1 4-2 6-2c3 0 5 1 7 2c3 4 3 9 0 13z m-134-40c-89 0-162 72-162 162c0 89 73 162 162 162c90 0 162-73 162-162c0-90-72-162-162-162z"/>
<glyph unicode="&#57376;" d="M450 509c-4 4-9 4-12 0l-12-11c-8 6-19 10-29 10c-14 0-26-6-36-16l-120-119c-3-3-3-9 0-12c2-2 4-3 6-3c3 0 5 1 7 3l119 119c11 11 28 13 41 6l-104-105l-214-213c-3-3-3-9 0-12l3-3c-3 1-6 1-9 1c-16 0-32-7-45-20c-24-24-43-114-45-124c0 0 0-1 0-1c0 0 0 0 0-1c0-1 0-2 1-2c0-1 0-1 0-1c0-1 1-2 2-3c0 0 1-1 2-1c1-1 2-1 4-1c0 0 1 0 1 0c10 2 100 21 124 45c16 16 22 36 19 54l3-3c2-1 4-2 6-2c2 0 5 1 6 2l342 342c3 3 3 8 0 12z m-328-452c-13-13-55-26-86-34l47 48c3 3 3 8 0 12c-4 3-9 3-12 0l-47-47c7 31 20 73 33 86c10 10 21 15 33 15c11 0 22-5 32-15c20-20 20-45 0-65z m40 57l-48 48l202 201l47-47z m213 214l-47 47l116 116l47-47z"/>
<glyph unicode="&#57377;" d="M143 82c2-2 4-3 6-3c3 0 5 1 6 3l325 324c3 3 3 9 0 12l-60 60c-3 3-9 3-12 0l-3-3c-9 6-19 9-30 9c-13 0-26-5-35-15l-128-128c-4-3-4-9 0-12c1-2 3-3 6-3c2 0 4 1 6 3l128 128c11 11 28 13 40 5l-104-104l-204-205c-4-3-4-8 0-12z m268 375c0 0 0 0 0 0c0 0 0 0 0 0l3 2l48-47l-108-108l-48 48z m-117-117l48-48l-193-192l-47 47z m-256-312c3 0 5 1 6 2l46 45l11-11c1-1 3-2 6-2c2 0 4 1 6 2c3 4 3 9 0 13l-34 34c-4 3-9 3-12 0c-4-4-4-9 0-12l11-11l-46-46c-3-3-3-8 0-12c2-1 4-2 6-2z"/>
<glyph unicode="&#57378;" d="M26 17c2 0 4 1 6 3l36 36l11-11c2-1 4-2 6-2c3 0 5 1 6 2l50 50l7-7c1-2 3-3 6-3c2 0 4 1 6 3l332 333c4 3 4 8 0 12l-59 59c-4 4-9 4-12 0l-12-11c-9 6-19 9-29 9c-14 0-26-5-36-15l-120-119c-3-3-3-9 0-12c2-2 4-3 6-3c3 0 5 1 6 3l120 119c11 11 28 13 41 5l-309-308c-4-4-4-9 0-12l7-7l-50-50c-3-3-3-8 0-12l11-11l-36-36c-4-4-4-9 0-12c1-2 3-3 6-3z m390 446c0 0 0 0 0 0c0 0 0 0 0 0l11 11l47-47l-116-116l-47 47z m-117-117l47-47l-192-193l-48 48z m-197-222l22-22l-39-39l-22 22z"/>
<glyph unicode="&#57379;" d="M34 26c1 0 2 0 3 0l103 43c0 0 0 0 0 0l0 0c1 0 2 1 2 2c0 0 0 0 1 0l213 213l128 128c3 3 3 9 0 12l-60 60c-3 3-9 3-12 0l-11-12c-9 7-19 10-30 10c-13 0-26-5-36-15l-119-120c-4-3-4-8 0-12c1-1 4-2 6-2c2 0 4 1 6 2l119 120c7 6 15 10 24 10c0 0 0 0 0 0c6 0 12-2 17-5l-104-104l-213-213c0-1 0-1 0-1c-1 0-2-1-2-2l0 0c0 0 0 0 0 0l-43-103c-1-3 0-6 2-9c2-2 4-2 6-2z m373 429c0 0 0 0 0 0c0 0 0 0 0 0l11 11l48-48l-116-116l-48 48z m-117-117l48-48l-201-201l-48 48z m-210-217l41-41l-71-30z"/>
<glyph unicode="&#57380;" d="M15 6c1 0 3 1 4 1l119 60c1 1 2 1 3 2l349 350c10 9 16 22 16 36c0 13-6 26-16 35c-9 10-22 16-35 16c-14 0-27-6-36-16l-350-349c-1-1-1-2-2-3l-60-119c-1-3-1-7 2-10c2-2 4-3 6-3z m384 441l48-48l-313-312l-47 47z m32 31c13 13 34 13 47 0c7-6 10-15 10-24c0-8-3-17-10-23l-19-20l-48 48z m-354-358l43-43l-86-43z"/>
<glyph unicode="&#57381;" d="M13 4c0 0 1 0 2 0l136 34c0 0 1 1 1 1c0 0 0 0 1 0c0 0 1 1 2 2l333 332c20 20 29 51 8 72l-51 51c-7 8-17 12-28 12c-15 0-31-8-44-20l-332-333c-1-1-2-2-2-2c0-1 0-1 0-1c0 0-1-1-1-1l-34-136c0-3 0-6 2-9c2-1 4-2 7-2z m332 432l91-91l-287-286l-90 90z m26 25l90-90l-13-14l-91 91z m46 30c6 0 12-2 16-7l51-51c13-13 6-34-8-48l-3-2l-90 90l2 3c10 9 22 15 32 15z m-366-359l81-81l-108-27z"/>
<glyph unicode="&#57382;" d="M9 0c0 0 1 0 2 0l145 43c0 0 0 0 1 0c0 0 0 1 1 1c0 0 0 0 1 0c0 1 0 1 0 1c1 0 1 0 1 0l325 326c17 17 17 44 0 60l-54 54c-16 17-43 17-60 0l-70-69l-256-256c0-1 0-1-1-1c0-1 0-1 0-1c0-1-1-1-1-2l-43-145c-1-3 0-6 2-8c2-2 4-3 7-3z m74 40l-43 43c0 0 0 0-1 0l15 51l7-11c2-2 4-4 7-4l51 0l0-51c0-3 2-5 4-7l11-7l-51-15c0 1 0 1 0 1z m258 392l91-91l-22-22l-91 91z m-34-34l39-40l-222-221l-51 0l-11 16z m-154-336l-16 11l0 51l221 222l40-39z m230 411c10 10 26 10 36 0l54-54c10-10 10-26 0-36l-29-30l-91 91z m-349-408l31-31l-44-13z"/>
<glyph unicode="&#57383;" d="M356 509c-3 4-9 4-12 0l-43-42c-3-4-3-9 0-12l20-20l-94-94l-90 0c-3 0-5-1-6-2l-35-34c-3-4-3-9 0-12l92-92l-185-186c-4-4-4-9 0-13c1-1 3-2 6-2c2 0 4 1 6 2l186 186l92-92c1-1 3-2 6-2c2 0 4 1 6 2l34 34c1 2 2 4 2 7l0 90l94 94l20-20c3-3 8-3 12 0l43 43c3 3 3 9 0 12z m105-190l-20 20c-3 3-8 3-12 0l-102-103c-2-1-3-3-3-6l0-90l-25-26l-185 185l26 25l90 0c3 0 5 1 6 3l103 102c3 4 3 9 0 12l-20 20l31 30l141-141z"/>
<glyph unicode="&#57384;" d="M410 512c-57 0-103-46-103-102c0-26 9-49 24-66l-328-329c-4-4-4-9 0-13c1-1 3-2 6-2c2 0 4 1 6 2l329 329c17-15 40-24 66-24c56 0 102 46 102 103c0 56-46 102-102 102z m0-188c-47 0-86 39-86 86c0 47 39 85 86 85c47 0 85-38 85-85c0-47-38-86-85-86z"/>
<glyph unicode="&#57385;" d="M383 508c-2 2-4 4-8 4l-179 0c-4 0-7-3-8-7l-60-256c0-2 0-5 2-7c1-2 4-3 7-3l74 0l-66-228c-1-4 1-8 5-10c1-1 2-1 4-1c2 0 5 1 7 4l222 324c1 3 1 6 0 9c-1 3-4 4-8 4l-95 0l103 158c1 2 1 6 0 9z m-126-171c-1-2-1-6 0-8c2-3 4-5 8-5l94 0l-183-267l54 188c1 3 0 5-1 8c-2 2-4 3-7 3l-75 0l56 239l157 0z"/>
<glyph unicode="&#57386;" d="M302 511c-3 2-8 1-10-3l-215-307c-2-2-2-6-1-9c2-3 5-4 8-4l161 0l-40-178c-1-3 1-8 4-9c2-1 3-1 4-1c3 0 5 1 7 3l215 291c2 2 2 6 1 8c-2 3-5 5-8 5l-161 0l40 195c1 4-1 8-5 9z m-54-211c-1-2 0-5 1-7c2-2 4-3 7-3l155 0l-181-244l34 148c1 3 0 6-1 8c-2 2-4 3-7 3l-156 0l182 259z"/>
<glyph unicode="&#57387;" d="M2 242c5-5 115-131 254-131c139 0 249 126 254 131c3 3 3 7 0 11c-4 6-115 148-254 148c-139 0-250-142-254-148c-3-4-3-8 0-11z m254 142c116 0 214-110 236-136c-22-24-120-120-236-120c-116 0-214 96-236 120c22 26 120 136 236 136z m0-222c52 0 94 42 94 94c0 52-42 94-94 94c-52 0-94-42-94-94c0-52 42-94 94-94z m0 171c42 0 77-35 77-77c0-42-35-77-77-77c-42 0-77 35-77 77c0 42 35 77 77 77z"/>
<glyph unicode="&#57388;" d="M436 335c-42 32-107 70-180 70c-73 0-138-38-180-70c-45-34-73-68-74-69c-3-3-3-8 0-11c4-6 115-148 254-148c139 0 250 142 254 148c3 3 3 8 0 11c-1 1-29 35-74 69z m-180-211c-116 0-215 110-236 136c21 25 120 128 236 128c116 0 215-103 236-128c-21-26-120-136-236-136z m0 230c-52 0-94-42-94-94c0-51 42-94 94-94c52 0 94 43 94 94c0 52-42 94-94 94z m0-171c-42 0-77 35-77 77c0 43 35 77 77 77c42 0 77-34 77-77c0-42-35-77-77-77z m0 128c-5 0-9-3-9-8c0-5 4-9 9-9c19 0 34-15 34-34c0-19-15-34-34-34c-19 0-34 15-34 34c0 5-4 9-9 9c-4 0-8-4-8-9c0-28 23-51 51-51c28 0 51 23 51 51c0 28-23 51-51 51z"/>
<glyph unicode="&#57389;" d="M95 213c-2 0-3 0-5 0c-47 0-86-38-86-85c0-47 39-85 86-85c47 0 85 38 85 85c0 36-23 67-55 80l67 38l248-142c8-5 16-7 25-7c5 0 10 1 15 2c13 4 25 13 32 25c1 2 1 4 0 6c0 2-2 4-4 5l-204 119l205 123c4 2 5 7 3 11c-7 12-19 21-32 25c-14 4-28 2-40-5l-248-142l-67 38c32 13 55 44 55 80c0 47-38 85-85 85c-47 0-86-38-86-85c0-47 39-85 86-85c2 0 3 0 5 0l75-43z m63-85c0-38-31-68-68-68c-38 0-69 30-69 68c0 38 31 68 69 68c37 0 68-30 68-68z m-137 256c0 38 31 68 69 68c37 0 68-30 68-68c0-38-31-68-68-68c-38 0-69 30-69 68z m423 10c8 4 17 5 26 3c6-2 12-6 17-11l-205-122l-32 18z m-211-121l254-148c-5-4-11-8-17-10c-9-2-18-1-26 3l-240 138z"/>
<glyph unicode="&#57390;" d="M354 339c16-24 42-40 73-40c47 0 85 38 85 85c0 47-38 85-85 85c-47 0-86-38-86-85c0-41-9-79-26-111c-43 62-114 102-196 102c-23 0-95-11-116-27c-2-2-3-5-3-8c1-3 3-6 6-7l278-77l-278-77c-3-1-5-4-6-7c0-3 1-7 3-9c21-15 93-26 116-26c82 0 153 40 196 102c17-32 26-70 26-111c0-47 39-85 86-85c47 0 85 38 85 85c0 47-38 85-85 85c-31 0-57-16-73-40c-5 30-15 58-29 83c14 25 24 53 29 83z m73 113c37 0 68-30 68-68c0-38-31-68-68-68c-38 0-69 30-69 68c0 38 31 68 69 68z m-308-298c-17 0-59 6-85 14l261 73c-40-53-103-87-176-87z m-85 189c26 9 68 15 85 15c73 0 136-34 176-87z m393-147c37 0 68-30 68-68c0-38-31-68-68-68c-38 0-69 30-69 68c0 38 31 68 69 68z"/>
<glyph unicode="&#57391;" d="M393 86c30 4 51 27 51 59l0 179c0 104-88 188-197 188c-108 0-196-84-196-188l0-179c0-32 21-55 51-59l0-34c0-29 23-52 52-52l187 0c29 0 52 23 52 52z m-18 8l0-42c0-19-15-35-34-35l-17 0l0 78c0 4-4 8-8 8c-5 0-9-4-9-8l0-78l-51 0l0 77c0 5-4 8-9 8c-4 0-8-3-8-8l0-77l-51 0l0 78c0 4-4 8-9 8c-5 0-8-4-8-8l0-78l-17 0c-19 0-35 16-35 35l0 42c0 5-3 8-8 8c-25 0-43 18-43 43l0 137c35 4 60 33 60 72l0 21c0 5-4 9-9 9c-4 0-8-4-8-9l0-21c0-29-18-51-43-55l0 25c0 94 81 171 179 171c99 0 180-77 180-171l0-25c-29 4-60 27-60 55l0 21c0 5-4 9-9 9c-4 0-8-4-8-9l0-21c0-38 39-68 77-72l0-137c0-25-18-43-43-43c-5 0-9-3-9-8z m-128 68c-13 0-25-16-25-25c0-5 4-9 8-9l35 0c4 0 8 4 8 9c0 9-12 25-26 25z m86 120c-38 0-68-31-68-69c0-37 30-68 68-68c37 0 68 31 68 68c0 38-31 69-68 69z m0-120c-28 0-51 23-51 51c0 29 23 52 51 52c28 0 51-23 51-52c0-28-23-51-51-51z m-171 120c-38 0-68-31-68-69c0-37 30-68 68-68c38 0 68 31 68 68c0 38-30 69-68 69z m0-120c-28 0-51 23-51 51c0 29 23 52 51 52c28 0 51-23 51-52c0-28-23-51-51-51z"/>
<glyph unicode="&#57392;" d="M256 495c-117 0-205-88-205-205l0-51c0-64 45-115 103-119l0-94c0-5 3-9 8-9c5 0 9 4 9 9l0 111l-9 0c-53 0-94 45-94 102l0 51c0 9 1 17 2 26c69 1 75 47 75 94c0 4-4 8-8 8c-5 0-9-4-9-8c0-51-9-76-55-77c18 86 89 145 183 145c94 0 165-59 183-145c-46 1-55 26-55 77c0 4-4 8-9 8c-4 0-8-4-8-8c0-47 6-93 75-94c1-9 2-17 2-26l0-51c0-57-41-102-94-102l-9 0l0-111c0-5 4-9 9-9c5 0 8 4 8 9l0 94c58 4 103 55 103 119l0 51c0 117-88 205-205 205z m-26-358c-4 0-8-4-8-9l0-102c0-5 4-9 8-9c5 0 9 4 9 9l0 102c0 5-4 9-9 9z m43-9l0-102c0-5 4-9 9-9c4 0 8 4 8 9l0 102c0 5-4 9-8 9c-5 0-9-4-9-9z m-24 69l-11-21c-1-3-1-6 0-8c2-3 5-4 8-4l21 0c0 0 0 0 0 0c5 0 9 3 9 8c0 2-1 4-2 5l-10 20c-3 6-12 6-15 0z m101-35c42 0 77 35 77 77c0 42-35 77-77 77c-42 0-77-35-77-77c0-42 35-77 77-77z m0 137c33 0 60-27 60-60c0-33-27-60-60-60c-33 0-60 27-60 60c0 33 27 60 60 60z m-188 17c-42 0-77-35-77-77c0-42 35-77 77-77c42 0 77 35 77 77c0 42-35 77-77 77z m0-137c-33 0-60 27-60 60c0 33 27 60 60 60c33 0 60-27 60-60c0-33-27-60-60-60z"/>
<glyph unicode="&#57393;" d="M503 358l-110 0c3 42 33 69 76 69c5 0 9 3 9 8c0 5-4 9-9 9c-40 0-71-20-85-52c-14 32-45 52-85 52c-5 0-9-4-9-9c0-5 4-8 9-8c43 0 73-27 76-69l-366 0c-5 0-9-3-9-8l0-188c0-5 4-8 9-8l366 0c-3-42-33-69-76-69c-5 0-9-3-9-8c0-5 4-9 9-9c40 0 71 20 85 52c14-32 45-52 85-52c5 0 9 4 9 9c0 5-4 8-9 8c-43 0-73 27-76 69l110 0c5 0 9 3 9 8l0 188c0 5-4 8-9 8z m-486-17l358 0l0-170l-358 0z m478-170l-102 0l0 170l102 0z"/>
<glyph unicode="&#57394;" d="M503 358l-494 0c-5 0-9-3-9-8l0-205c0-5 4-8 9-8l494 0c5 0 9 3 9 8l0 205c0 5-4 8-9 8z m-8-204l-478 0l0 187l478 0z m-418 32c5 0 8 3 8 8l0 105c0 4-3 8-8 8c-5 0-9-4-9-8l0-105c0-5 4-8 9-8z"/>
<glyph unicode="&#57395;" d="M367 512l-34 0c-39 0-71-22-86-54c-14 32-47 54-85 54l-34 0c-5 0-9-4-9-9c0-4 4-8 9-8l34 0c43 0 77-34 77-77c0 0 0 0 0 0c0 0 0 0 0-1l0-229l-43 0c-4 0-8-4-8-9c0-5 4-8 8-8l43 0l0-77c0-43-34-77-77-77l-34 0c-5 0-9-4-9-8c0-5 4-9 9-9l34 0c38 0 71 22 85 54c15-32 47-54 85-54l35 0c5 0 8 4 8 9c0 4-3 8-8 8l-35 0c-42 0-76 34-76 77l0 77l43 0c4 0 8 3 8 8c0 5-4 9-8 9l-43 0l0 229c0 1 0 1 0 1c0 0 0 0 0 0c0 43 34 77 77 77l34 0c5 0 8 4 8 8c0 5-3 9-8 9z m-358-213c4 0 8 3 8 8l0 17l17 0c5 0 9 4 9 9c0 5-4 8-9 8l-25 0c-5 0-9-3-9-8l0-26c0-5 4-8 9-8z m68 42c-5 0-9-3-9-8c0-5 4-9 9-9l42 0c5 0 9 4 9 9c0 5-4 8-9 8z m85-17l43 0c5 0 8 4 8 9c0 5-3 8-8 8l-43 0c-5 0-8-3-8-8c0-5 3-9 8-9z m-128-222c5 0 9 4 9 9c0 5-4 8-9 8l-17 0l0 18c0 4-4 8-8 8c-5 0-9-4-9-8l0-26c0-5 4-9 9-9z m43 0l42 0c5 0 9 4 9 9c0 5-4 8-9 8l-42 0c-5 0-9-3-9-8c0-5 4-9 9-9z m85 0l43 0c5 0 8 4 8 9c0 5-3 8-8 8l-43 0c-5 0-8-3-8-8c0-5 3-9 8-9z m324 152c-4 0-8-4-8-9l0-49c0-4 4-8 8-8c5 0 9 4 9 8l0 49c0 5-4 9-9 9z m-477-66c4 0 8 4 8 8l0 49c0 5-4 9-8 9c-5 0-9-4-9-9l0-49c0-4 4-8 9-8z m486 145c0 5-4 8-9 8l-25 0c-5 0-9-3-9-8c0-5 4-9 9-9l17 0l0-17c0-5 4-8 8-8c5 0 9 3 9 8z m-77 8l-43 0c-4 0-8-3-8-8c0-5 4-9 8-9l43 0c5 0 9 4 9 9c0 5-4 8-9 8z m-85 0l-43 0c-5 0-8-3-8-8c0-5 3-9 8-9l43 0c5 0 8 4 8 9c0 5-3 8-8 8z m128-239l25 0c5 0 9 4 9 9l0 26c0 4-4 8-9 8c-4 0-8-4-8-8l0-18l-17 0c-5 0-9-3-9-8c0-5 4-9 9-9z m-43 17l-43 0c-4 0-8-3-8-8c0-5 4-9 8-9l43 0c5 0 9 4 9 9c0 5-4 8-9 8z m-85 0l-43 0c-5 0-8-3-8-8c0-5 3-9 8-9l43 0c5 0 8 4 8 9c0 5-3 8-8 8z"/>
<glyph unicode="&#57396;" d="M333 495l34 0c5 0 9 4 9 8c0 5-4 9-9 9l-34 0c-38 0-70-22-85-54c-15 32-47 54-85 54l-34 0c-5 0-9-4-9-9c0-4 4-8 9-8l34 0c43 0 76-34 76-77l0-230l-43 0c-4 0-8-4-8-9c0-5 4-8 8-8l43 0l0-76c0-1 1-1 1-1c0 0-1 0-1 0c0-43-33-77-76-77l-34 0c-5 0-9-4-9-8c0-5 4-9 9-9l34 0c38 0 70 22 85 54c15-32 47-54 85-54l34 0c5 0 9 4 9 9c0 4-4 8-9 8l-34 0c-43 0-76 34-76 77c0 0-1 0-1 0c0 0 1 0 1 1l0 76l42 0c5 0 9 3 9 8c0 5-4 9-9 9l-42 0l0 230c0 43 33 77 76 77z"/>
<glyph unicode="&#57397;" d="M424 100c-1 1-2 1-2 2c13 16 22 37 22 60c0 52-42 94-94 94c-52 0-94-42-94-94c0-52 42-94 94-94c23 0 44 9 60 22c1 0 1-1 2-2l85-86c2-1 4-2 6-2c3 0 5 1 7 2c3 4 3 9 0 13z m-74-15c-42 0-77 35-77 77c0 42 35 77 77 77c42 0 77-35 77-77c0-42-35-77-77-77z m46 86l-38 0l0 31c0 5-3 9-8 9c-5 0-9-4-9-9l0-31l-31 0c-5 0-9-4-9-9c0-5 4-8 9-8l31 0l0-38c0-5 4-8 9-8c5 0 8 3 8 8l0 38l38 0c5 0 8 3 8 8c0 5-3 9-8 9z m-38 264c0 5-3 9-8 9c-5 0-9-4-9-9l0-42c0-5 4-9 9-9c5 0 8 4 8 9z m-8-85c-5 0-9-4-9-9l0-42c0-5 4-9 9-9c5 0 8 4 8 9l0 42c0 5-3 9-8 9z m-341 43c4 0 8 3 8 8l0 34c0 5-4 9-8 9c-5 0-9-4-9-9l0-34c0-5 4-8 9-8z m0-86c4 0 8 4 8 9l0 34c0 5-4 8-8 8c-5 0-9-3-9-8l0-34c0-5 4-9 9-9z m0-85c4 0 8 4 8 8l0 35c0 4-4 8-8 8c-5 0-9-4-9-8l0-35c0-4 4-8 9-8z m17 290l-17 0c-5 0-9-4-9-9l0-17c0-4 4-8 9-8c4 0 8 4 8 8l0 9l9 0c4 0 8 4 8 8c0 5-4 9-8 9z m85 0l-34 0c-5 0-9-4-9-9c0-4 4-8 9-8l34 0c5 0 8 4 8 8c0 5-3 9-8 9z m85 0l-34 0c-5 0-8-4-8-9c0-4 3-8 8-8l34 0c5 0 9 4 9 8c0 5-4 9-9 9z m-170-341l-9 0l0 8c0 5-4 9-8 9c-5 0-9-4-9-9l0-17c0-5 4-8 9-8l17 0c4 0 8 3 8 8c0 5-4 9-8 9z m85 0l-34 0c-5 0-9-4-9-9c0-5 4-8 9-8l34 0c5 0 8 3 8 8c0 5-3 9-8 9z m85 0l-34 0c-5 0-8-4-8-9c0-5 3-8 8-8l34 0c5 0 9 3 9 8c0 5-4 9-9 9z m51 341c-4 0-8-4-8-9c0-4 4-8 8-8l35 0c4 0 8 4 8 8c0 5-4 9-8 9z m111-9c0 5-3 9-8 9l-17 0c-5 0-9-4-9-9c0-4 4-8 9-8l8 0l0-9c0-4 4-8 9-8c5 0 8 4 8 8z"/>
<glyph unicode="&#57398;" d="M313 211c0 0-1 1-2 1c29 32 47 74 47 121c0 99-80 179-179 179c-99 0-179-80-179-179c0-99 80-179 179-179c47 0 89 18 121 47c0-1 1-2 1-2l196-197c2-1 4-2 6-2c3 0 5 1 7 2c3 4 3 9 0 13z m-134-40c-89 0-162 72-162 162c0 89 73 162 162 162c90 0 162-73 162-162c0-90-72-162-162-162z m77 170l-68 0l0 69c0 4-4 8-9 8c-5 0-8-4-8-8l0-69l-69 0c-4 0-8-3-8-8c0-5 4-9 8-9l69 0l0-68c0-5 3-9 8-9c5 0 9 4 9 9l0 68l68 0c5 0 9 4 9 9c0 5-4 8-9 8z"/>
<glyph unicode="&#57399;" d="M313 211c0 0-1 1-2 1c29 32 47 74 47 121c0 99-80 179-179 179c-99 0-179-80-179-179c0-99 80-179 179-179c47 0 89 18 121 47c0-1 1-2 1-2l196-197c2-1 4-2 6-2c3 0 5 1 7 2c3 4 3 9 0 13z m-134-40c-89 0-162 72-162 162c0 89 73 162 162 162c90 0 162-73 162-162c0-90-72-162-162-162z m77 170l-154 0c-4 0-8-3-8-8c0-5 4-9 8-9l154 0c5 0 9 4 9 9c0 5-4 8-9 8z"/>
<glyph unicode="&#57400;" d="M311 256l71 71c2 2 2 5 2 8c-1 3-3 5-6 6l-307 111c-3 1-6 0-9-2c-2-2-3-6-2-9l103-307c0-3 3-5 5-6c3 0 6 0 8 2l80 72l139-140c2-1 4-2 6-2c2 0 4 1 6 2l43 43c3 3 3 9 0 12z m90-176l-139 139c-2 2-4 3-6 3c-2 0-4-1-6-2l-75-68l-93 278l278-101l-67-67c-4-3-4-9 0-12l139-139z"/>
<glyph unicode="&#57401;" d="M512 196c0 1 0 3-1 4c0 0 0 0 0 0c-1 1-1 2-2 2c0 1 0 1 0 1l-68 59c-4 4-9 3-12 0c-3-4-3-9 1-12l51-45l-157 0l0 158l54-53c2-2 4-3 6-3c2 0 4 1 6 3c3 3 3 8 0 12l-68 68c-1 1-2 1-3 2c-2 1-4 1-7 0c-1-1-2-1-2-2l-69-68c-3-4-3-9 0-12c4-4 9-4 13 0l53 53l0-158l-156 0l51 45c3 3 4 8 1 12c-3 3-9 4-12 0l-69-59c0 0 0 0 0-1c0 0-1-1-1-2c0 0-1 0-1 0c0-1-1-3-1-4c0-1 1-2 1-3c0 0 1-1 1-1c0-1 1-1 1-2c0 0 0 0 0 0l69-60c1-1 3-2 5-2c3 0 5 1 7 3c3 3 2 9-1 12l-51 45l156 0l0-159l-53 54c-4 3-9 3-13 0c-3-4-3-9 0-12l69-68c0-1 1-2 2-2c2-1 3-1 4-1c1 0 2 0 3 1c1 0 2 1 3 2l68 68c3 3 3 8 0 12c-3 3-9 3-12 0l-54-54l0 159l157 0l-51-45c-4-3-4-9-1-12c1-2 4-3 6-3c2 0 4 1 6 2l68 60c0 0 0 0 0 0c1 1 1 1 2 2c0 0 0 1 0 1c1 1 1 2 1 3z m-391 86c3 0 6 3 7 6l16 80l80 16c3 1 6 4 6 7c1 4-1 7-4 9l-214 111c-3 2-7 1-9-1c-3-3-4-7-2-10l111-214c1-3 4-4 7-4c1 0 1 0 2 0z m-92 201l167-87l-61-12c-4-1-6-3-7-7l-12-61z"/>
<glyph unicode="&#57402;" d="M230 391c1 4-1 7-4 9l-214 111c-3 2-7 1-9-2c-3-2-4-6-2-9l111-214c1-3 4-4 7-4c1 0 1 0 2 0c3 0 6 3 7 6l16 80l80 16c3 1 6 4 6 7z m-95-7c-4-1-6-3-7-7l-12-61l-87 167l167-87z m198-34c-94 0-171-77-171-171c0-94 77-170 171-170c94 0 170 76 170 170c0 94-76 171-170 171z m0-324c-85 0-154 69-154 153c0 85 69 154 154 154c84 0 153-69 153-154c0-84-69-153-153-153z m85 162l-77 0l0 77c0 4-3 8-8 8c-5 0-9-4-9-8l0-77l-77 0c-4 0-8-4-8-9c0-5 4-8 8-8l77 0l0-77c0-5 4-9 9-9c5 0 8 4 8 9l0 77l77 0c5 0 9 3 9 8c0 5-4 9-9 9z"/>
<glyph unicode="&#57403;" d="M507 307l-495 204c-3 2-7 1-9-2c-3-2-4-6-2-9l204-495c1-3 5-5 8-5c0 0 0 0 0 0c4 0 7 3 8 6l63 222l222 63c3 1 6 4 6 8c0 3-2 7-5 8z m-232-64c-3-1-5-3-6-6l-58-203l-187 454l454-187z"/>
<glyph unicode="&#57404;" d="M494 251c0 1-1 2-2 2l-59 60c-4 4-9 4-12 0c-4-3-4-9 0-12l45-45l-208 0l0 205l47-47c2-2 4-2 6-2c3 0 5 0 6 2c4 3 4 9 0 12l-61 62c-1 1-2 1-3 2c-2 1-4 1-7 0c-1-1-2-1-2-2l-62-62c-3-3-3-9 0-12c3-3 9-3 12 0l47 47l0-205l-203 0l45 45c3 4 3 9 0 12c-4 4-9 4-12 0l-60-59c-1-1-1-2-2-3c-1-2-1-5 0-7c1-1 1-2 2-3l60-59c1-2 4-3 6-3c2 0 4 1 6 3c3 3 3 8 0 12l-45 45l203 0l0-210l-47 47c-3 4-9 4-12 0c-3-3-3-8 0-12l62-62c0 0 1-1 2-1c1-1 3-1 4-1c1 0 2 0 3 1c1 0 2 1 3 1l61 62c4 4 4 9 0 12c-3 4-8 4-12 0l-47-47l0 210l208 0l-45-45c-4-4-4-9 0-12c1-2 3-3 6-3c2 0 4 1 6 3l59 59c1 1 2 2 2 3c1 2 1 5 0 7z"/>
<glyph unicode="&#57405;" d="M510 14l-110 110l64 27c3 1 5 5 5 8c0 3-2 7-5 8l-183 75c-3 1-7 1-10-2c-2-2-3-6-1-9l75-183c1-3 4-5 8-5c0 0 0 0 0 0c3 0 6 2 8 5l27 64l109-110c2-1 4-2 6-2c3 0 5 1 7 2c3 4 3 9 0 12z m-157 59l-60 146l145-60l-56-24c0 0 0 0 0 0l0 0c-1-1-2-1-3-2c0 0 0 0 0 0c-1-1-1-2-2-3l0 0c0 0 0 0 0 0z m5 362c0 5-3 9-8 9c-5 0-9-4-9-9l0-42c0-5 4-9 9-9c5 0 8 4 8 9z m-8-85c-5 0-9-4-9-8l0-43c0-5 4-9 9-9c5 0 8 4 8 9l0 43c0 4-3 8-8 8z m-341 43c4 0 8 4 8 8l0 34c0 5-4 9-8 9c-5 0-9-4-9-9l0-34c0-4 4-8 9-8z m0-86c4 0 8 4 8 9l0 34c0 5-4 9-8 9c-5 0-9-4-9-9l0-34c0-5 4-9 9-9z m0-85c4 0 8 4 8 9l0 34c0 4-4 8-8 8c-5 0-9-4-9-8l0-34c0-5 4-9 9-9z m17 290l-17 0c-5 0-9-4-9-8l0-17c0-5 4-9 9-9c4 0 8 4 8 9l0 8l9 0c4 0 8 4 8 9c0 4-4 8-8 8z m85 0l-34 0c-5 0-9-4-9-8c0-5 4-9 9-9l34 0c5 0 8 4 8 9c0 4-3 8-8 8z m85 0l-34 0c-5 0-8-4-8-8c0-5 3-9 8-9l34 0c5 0 9 4 9 9c0 4-4 8-9 8z m-170-341l-9 0l0 8c0 5-4 9-8 9c-5 0-9-4-9-9l0-17c0-4 4-8 9-8l17 0c4 0 8 4 8 8c0 5-4 9-8 9z m85 0l-34 0c-5 0-9-4-9-9c0-4 4-8 9-8l34 0c5 0 8 4 8 8c0 5-3 9-8 9z m85 0l-34 0c-5 0-8-4-8-9c0-4 3-8 8-8l34 0c5 0 9 4 9 8c0 5-4 9-9 9z m94 333c0 4-4 8-8 8l-35 0c-4 0-8-4-8-8c0-5 4-9 8-9l35 0c4 0 8 4 8 9z m68 0c0 4-3 8-8 8l-17 0c-5 0-9-4-9-8c0-5 4-9 9-9l8 0l0-8c0-5 4-9 9-9c5 0 8 4 8 9z"/>
<glyph unicode="&#57406;" d="M361 278c0 3-1 6-4 7l-344 183c-4 2-8 1-10-1c-3-3-4-7-2-10l183-355c1-3 4-5 7-5c1 0 1 0 1 0c3 0 6 2 7 5l53 116l105 52c3 2 4 5 4 8z m-120-46c-1-1-3-3-4-4l-46-103l-162 315l305-162z m266 53l-344 183c-3 2-7 2-10-1c-2-3-3-7-1-10l21-43c2-4 7-6 12-4c4 2 5 7 3 12l-9 19l306-163l-93-46c-2-1-3-3-4-4l-46-102l-35 70c-2 4-8 6-12 3c-4-2-6-7-4-11l43-86c2-3 5-5 8-5c0 0 0 0 0 0c4 0 6 2 8 5l52 116l105 52c3 2 5 5 5 8c0 3-2 6-5 7z"/>
<glyph unicode="&#57407;" d="M230 43l69 0c64 0 128 61 128 124l0 191c0 23-20 43-43 43c-9 0-18-4-26-10l0 10c0 23-19 43-42 43c-10 0-19-4-27-10c-3 19-21 35-42 35c-20 0-38-16-41-35c-8 6-17 10-27 10c-23 0-42-20-42-43l0-85l-26 0c-23 0-43-20-43-43l0-85c0-47 77-145 162-145z m-145 230c0 13 13 26 26 26l26 0l0-86c0-4 3-8 8-8c5 0 9 4 9 8l0 188c0 13 12 26 25 26c13 0 26-13 26-26l0-102c0-5 4-9 8-9c5 0 9 4 9 9l0 128c0 13 12 25 25 25c14 0 26-12 26-25l0-128c0-5 4-9 9-9c4 0 8 4 8 9l0 102c0 13 13 26 26 26c13 0 25-12 25-26l0-128c0-5 4-8 9-8c5 0 8 3 8 8l0 85c0 13 13 26 26 26c13 0 26-12 26-26l0-191c0-54-55-107-111-107l-69 0c-72 0-145 87-145 128z"/>
<glyph unicode="&#57408;" d="M146 75c19-30 55-62 98-62l72 0c64 0 127 63 127 128l0 213c0 23-20 43-43 43c-9 0-18-4-25-9l0 26c0 23-20 43-43 43c-9 0-18-4-26-10l0 10c0 22-19 42-42 42c-23 0-43-20-43-42l0-10c-7 6-16 10-25 10c-23 0-43-20-43-43l0-184l-36 52c-8 13-18 20-29 21c-12 1-22-7-26-11c-13-12-13-30-2-52c0-1 49-107 86-165z m-72 205c2 2 7 6 13 6c6-1 12-8 16-13l51-76c2-3 6-4 10-3c4 1 6 4 6 8l0 212c0 13 12 25 26 25c13 0 25-12 25-25l0-128c0-5 4-9 9-9c4 0 8 4 8 9l0 171c0 13 13 25 26 25c13 0 25-12 25-25l0-171c0-5 4-9 9-9c5 0 9 4 9 9l0 128c0 13 12 25 25 25c13 0 26-12 26-25l0-157c0-4 4-8 8-8c5 0 9 4 9 8l0 97c0 13 12 26 25 26c14 0 26-13 26-26l0-213c0-55-56-111-110-111l-72 0c-36 0-68 29-84 54c-36 58-84 162-85 163c-11 23-4 30-1 33z"/>
<glyph unicode="&#57409;" d="M427 222l0 111c0 23-20 42-43 42c-10 0-19-3-26-9c-3 19-19 33-39 33c-11 0-22-5-30-13c-5 18-22 32-42 32c-18 0-34-13-40-30c-7 8-17 13-28 13c-23 0-42-20-42-43l0-25l-18 0c-31 0-51-27-51-51l0-26c0-53 40-162 162-162l77 0c63 0 120 61 120 128z m-342 34l0 26c0 16 14 34 34 34l18 0l0-33c0-5 3-8 8-8c5 0 9 3 9 8l0 75c0 14 12 26 25 26c12 0 26-16 26-30l0-21c0-5 4-9 8-9c5 0 9 4 9 9l0 43c0 13 12 25 25 25c14 0 26-12 26-26l0-42c0-5 4-9 9-9c4 0 8 4 8 9l0 21c0 13 16 28 29 28c13 0 22-10 22-24l0-59c0-5 4-9 9-9c5 0 8 4 8 9l0 34c0 13 13 25 26 25c13 0 26-12 26-25l0-111c0-57-50-111-103-111l-77 0c-118 0-145 107-145 145z"/>
<glyph unicode="&#57410;" d="M151 33c0 0 0 0 1 0c19-21 47-33 76-33l75 0c70 0 105 47 105 141c0 17 5 35 13 51l46 86c6 9 7 20 5 31c-3 10-9 19-18 25c-7 4-14 6-22 6c-14 0-27-7-34-20l-36-55l27 147c5 22-9 43-31 48c-3 1-6 1-9 1c-19 0-35-13-39-32l-20-87l0 127c0 23-20 43-43 43c-22 0-42-20-42-43l0-114l-16 82c-4 18-21 32-40 32c-3 0-6 0-8-1c-11-2-20-9-26-18c-6-9-8-20-6-30l32-218l-47 41c-8 7-17 11-28 11c-11 0-22-5-30-13c-15-17-14-42 2-58z m-102 196c8 9 24 10 34 1l64-56c3-2 6-3 10-1c3 2 4 5 4 9l-35 241c-1 6 0 13 3 18c4 5 9 9 15 10c13 3 26-5 28-18l33-170c1-4 5-7 9-7c5 0 8 4 8 9l0 204c0 13 12 26 25 26c14 0 26-13 26-26l0-204c0-5 3-8 8-9c4 0 8 2 9 7l36 162c3 13 16 21 28 19c13-3 21-16 19-29l-35-190c-1-4 1-8 5-9c4-2 8 0 10 3l59 92c4 8 12 12 20 12c5 0 9-1 13-4c5-3 9-8 10-14c2-7 1-13-3-19l-46-86c-9-18-15-39-15-59c0-85-28-124-88-124l-75 0c-24 0-47 10-64 27l-113 150c0 1 0 1-1 1c-9 9-10 24-1 34z"/>
<glyph unicode="&#57411;" d="M181 20c2-2 4-3 7-3l196 0c4 0 7 2 8 6l43 128c6 21 9 42 9 62l0 77c0 23-29 43-51 43l-19 0c-5 13-19 25-33 25l-35 0c-5 12-19 17-33 17l-34 0l0 77c0 23-20 43-43 43c-22 0-42-20-42-43l0-227l-38 37c-13 12-33 11-45-1c-11-11-12-29-2-44c6-11 80-154 112-197z m-98 229c6 6 16 6 22 1l51-51c3-3 6-3 9-2c4 1 6 4 6 8l0 247c0 13 12 26 25 26c13 0 26-13 26-26l0-153c0-5 4-9 8-9c5 0 9 4 9 9l0 59l34 0c7 0 17-2 17-8l0-51c0-5 4-9 9-9c4 0 8 4 8 9l0 42l34 0c8 0 17-10 17-17l0-44c0-5 4-8 9-8c5 0 8 3 8 8l0 36l18 0c13 0 34-14 34-26l0-77c0-18-3-38-8-57l-41-122l-186 0c-33 46-107 190-108 192c0 0 0 0 0 1c-5 6-7 16-1 22z"/>
<glyph unicode="&#57412;" d="M247 383c-22 0-42-20-42-42l0-203c-34 47-54 51-76 51c-10 0-18-4-22-12c-8-14-4-33 4-44l87-129c1-3 4-4 7-4l170 0c5 0 8 3 9 7l22 118c6 25 0 55-27 64l-89 30l0 122c0 22-20 42-43 42z m127-210c16-6 19-27 15-45l-21-111l-159 0l-84 125c-5 8-7 20-3 26c1 2 2 4 7 4c17 0 34 0 77-66c2-3 6-4 10-3c3 1 6 4 6 8l0 230c0 13 12 25 25 25c14 0 26-12 26-25l0-128c0-3 2-7 6-8z m-263 66l34 0c5 0 9 4 9 8c0 5-4 9-9 9l-34 0c-29 0-60 19-60 51l0 128c0 31 29 60 60 60l273 0c31 0 60-29 60-60l0-128c0-32-31-51-60-51l-34 0c-5 0-9-4-9-9c0-4 4-8 9-8l34 0c43 0 77 30 77 68l0 128c0 40-37 77-77 77l-273 0c-40 0-77-37-77-77l0-128c0-38 34-68 77-68z"/>
<glyph unicode="&#57413;" d="M387 189l-95 31l0 121c0 23-20 43-43 43c-22 0-42-21-42-43l0-202c-32 45-47 50-70 50c-10 0-18-4-22-13c-7-13-4-32 4-43l89-129c2-3 4-4 7-4l171 0c4 0 8 3 8 7l20 118c6 25 0 55-27 64z m11-61l-19-111l-159 0l-87 125c-5 8-7 20-3 26c1 2 2 4 7 4c17 0 29 0 72-66c2-3 6-4 9-3c4 1 6 4 6 8l0 230c0 13 13 26 25 26c13 0 26-13 26-26l0-128c0-3 2-7 6-8l101-32c17-6 20-27 16-45z m-250 110c3 0 5 1 6 2c4 4 4 9 0 12c-26 27-41 63-41 101c0 38 15 73 41 100c27 27 63 42 101 42c38 0 74-15 100-42c27-27 42-62 42-100c0-38-15-74-42-101c-3-3-3-8 0-12c4-3 9-3 12 0c30 30 47 70 47 113c0 42-17 82-47 112c-30 30-70 47-112 47c-43 0-83-17-113-47c-30-30-46-70-46-112c0-43 16-83 46-113c2-1 4-2 6-2z"/>
<glyph unicode="&#57414;" d="M377 189l-87 30l0 122c0 22-20 42-43 42c-23 0-42-20-42-42l0-211c-35 49-55 59-77 59c-10 0-17-4-22-12c-7-14-3-33 5-44l87-129c1-3 4-4 7-4l170 0c5 0 8 3 9 7l22 118c5 25-3 55-29 64z m12-61l-21-111l-159 0l-84 125c-5 8-7 20-4 26c1 2 3 4 7 4c16 0 34-6 78-74c2-3 6-5 10-4c3 1 6 5 6 8l0 239c0 13 12 25 25 25c13 0 26-12 26-25l0-128c0-3 2-7 6-8l92-32c17-6 22-27 18-45z m21 230l-69 0c-4 0-8-3-8-8c0-5 4-9 8-9l69 0c4 0 8 4 8 9c0 5-4 8-8 8z m-88 51c2 0 4 1 6 2l43 43c3 4 3 9 0 12c-3 4-9 4-12 0l-43-43c-3-3-3-8 0-12c2-1 4-2 6-2z m-75 18c5 0 9 3 9 8l0 68c0 5-4 9-9 9c-4 0-8-4-8-9l0-68c0-5 4-8 8-8z m-82-16c2-1 4-2 6-2c3 0 5 1 6 2c4 4 4 9 0 12l-43 43c-3 4-8 4-12 0c-3-3-3-8 0-12z m-3-61c0 5-4 8-8 8l-69 0c-4 0-8-3-8-8c0-5 4-9 8-9l69 0c4 0 8 4 8 9z"/>
<glyph unicode="&#57415;" d="M460 220l-119 42l0 105c0 21-17 34-34 34l-17 0c-17 0-34-13-34-34l0-166l-10 17c0 0 0 0 0 1c-6 7-16 12-25 12l-21-1c-10 0-20-5-25-14c-6-9-6-20-1-29l79-155c5-10 19-15 29-15l136 0c11 0 20 7 25 18c0 1 0 1 1 2l34 152c0 1 0 1 0 2c0 14-7 25-18 29z m-33-179c-3-6-6-7-9-7l-136 0c-6 0-12 3-14 6l-79 155c-2 4-2 8 0 12c2 4 7 6 11 6l22 1c3 0 7-3 10-6l25-42c2-3 6-5 10-4c4 1 6 5 6 9l0 196c0 12 11 17 17 17l17 0c7 0 17-5 17-17l0-111c0-4 3-7 6-8l124-44c5-2 7-7 7-12z m-333 437l-43 0c-5 0-8-4-8-9c0-4 3-8 8-8l43 0c5 0 9 4 9 8c0 5-4 9-9 9z m0-85l-43 0c-5 0-8-4-8-9c0-5 3-9 8-9l43 0c5 0 9 4 9 9c0 5-4 9-9 9z m0-86l-43 0c-5 0-8-4-8-8c0-5 3-9 8-9l43 0c5 0 8 4 8 9c0 4-3 8-8 8z m60 154l42 0c5 0 9 4 9 8c0 5-4 9-9 9l-42 0c-5 0-9-4-9-9c0-4 4-8 9-8z m0-86l42 0c5 0 9 4 9 9c0 5-4 9-9 9l-42 0c-5 0-9-4-9-9c0-5 4-9 9-9z m51-76c0 4-4 8-9 8l-42 0c-5 0-9-4-9-8c0-5 4-9 9-9l42 0c5 0 9 4 9 9z m60 162l42 0c5 0 9 4 9 8c0 5-4 9-9 9l-42 0c-5 0-9-4-9-9c0-4 4-8 9-8z"/>
<glyph unicode="&#57416;" d="M401 512l-290 0c-5 0-9-4-9-9l0-494c0-4 2-7 6-8c3-2 6-1 9 1l142 135l136-135c2-1 4-2 6-2c1 0 2 0 3 1c4 1 6 4 6 8l0 494c0 5-4 9-9 9z m-282-17l52 0l0-418c0 0 0 0 0 0l-52-49z m134-340l-65-62l0 402l136 0l0-399l-59 58c-3 4-8 4-12 1z m140-126l-52 50l0 416l52 0z"/>
<glyph unicode="&#57417;" d="M359 509c-3 4-9 4-12 1l-344-342c-3-2-4-6-2-9c1-3 4-5 8-5l145 0l0-145c0-4 2-7 5-8c1-1 2-1 3-1c2 0 5 1 6 3l342 344c3 3 3 9 0 12z m-188-480l0 133c0 5-4 9-9 9l-133 0l324 320l138-138z"/>
<glyph unicode="&#57418;" d="M358 512l-187 0c-47 0-86-39-86-85l0-418c0-4 2-7 6-8c1-1 2-1 3-1c2 0 4 1 6 3l97 101l113-102c3-2 6-3 9-1c3 1 5 4 5 8l0 366l111 0c5 0 9 4 9 9l0 43c0 46-39 85-86 85z m69-119l-103 0l0 25c0 20 14 34 34 34c5 0 9 4 9 9c0 5-4 8-9 8c-29 0-51-22-51-51l0-390l-105 94c-2 2-4 3-6 3c-2 0-4-1-6-3l-88-92l0 397c0 37 32 68 69 68l187 0c37 0 69-31 69-68z"/>
<glyph unicode="&#57419;" d="M503 495l-247 0l0 8c0 5-4 9-9 9l-170 0c-5 0-9-4-9-9l0-8l-59 0c-5 0-9-4-9-9l0-477c0-5 4-9 9-9l494 0c5 0 9 4 9 9l0 477c0 5-4 9-9 9z m-418 0l154 0l0-253l-71 71c-1 2-4 3-6 3c-2 0-4-1-6-3l-71-71z m410-478l-478 0l0 461l51 0l0-256c0-4 2-7 6-8c3-1 6-1 9 2l79 79l79-79c2-2 4-3 6-3c2 0 3 1 4 1c3 1 5 4 5 8l0 256l239 0z m-188 341l128 0c5 0 9 4 9 9c0 5-4 8-9 8l-128 0c-5 0-8-3-8-8c0-5 3-9 8-9z m0-68l128 0c5 0 9 4 9 9c0 4-4 8-9 8l-128 0c-5 0-8-4-8-8c0-5 3-9 8-9z m128-51l-128 0c-5 0-8-4-8-9c0-4 3-8 8-8l128 0c5 0 9 4 9 8c0 5-4 9-9 9z m0-68l-358 0c-5 0-9-4-9-9c0-5 4-8 9-8l358 0c5 0 9 3 9 8c0 5-4 9-9 9z m-85-69l-273 0c-5 0-9-3-9-8c0-5 4-9 9-9l273 0c5 0 8 4 8 9c0 5-3 8-8 8z"/>
<glyph unicode="&#57420;" d="M194 510c-2 1-4 2-6 2l-179 0c-5 0-9-4-9-9l0-179c0-2 1-4 2-6l313-315c1-2 4-3 6-3c0 0 0 0 0 0c2 0 4 1 6 2l183 183c1 2 2 4 2 6c0 2-1 5-3 6z m127-489l-304 307l0 167l167 0l307-304z m-205 426c-28 0-51-23-51-51c0-29 23-52 51-52c29 0 52 23 52 52c0 28-23 51-52 51z m0-86c-19 0-34 16-34 35c0 19 15 34 34 34c19 0 35-15 35-34c0-19-16-35-35-35z"/>
<glyph unicode="&#57421;" d="M194 510c-2 1-4 2-6 2l-179 0c-5 0-9-4-9-9l0-179c0-2 1-4 2-6l313-315c1-2 4-3 6-3c1 0 1 0 2 0c3 1 5 3 6 6l41 136l136 41c3 1 5 3 6 6c0 3 0 6-3 8z m167-353c-3-1-5-3-6-6l-38-126l-300 303l0 167l167 0l303-300z m-245 290c-28 0-51-23-51-51c0-29 23-52 51-52c29 0 52 23 52 52c0 28-23 51-52 51z m0-86c-19 0-34 16-34 35c0 19 15 34 34 34c19 0 35-15 35-34c0-19-16-35-35-35z"/>
<glyph unicode="&#57422;" d="M401 222c-61 0-111-50-111-111c0-61 50-111 111-111c61 0 111 50 111 111c0 61-50 111-111 111z m0-205c-52 0-94 42-94 94c0 52 42 94 94 94c52 0 94-42 94-94c0-52-42-94-94-94z m51 102l-42 0l0 43c0 5-4 9-9 9c-5 0-8-4-8-9l0-43l-43 0c-5 0-9-3-9-8c0-5 4-9 9-9l43 0l0-42c0-5 3-9 8-9c5 0 9 4 9 9l0 42l42 0c5 0 9 4 9 9c0 5-4 8-9 8z m-25 256l0 128c0 3-1 5-3 7c-1 1-4 2-6 2l0 0l-146 0c-2 0-4-1-6-3l-263-263c-4-3-4-9 0-12l134-135c2-1 4-2 6-2c2 0 4 1 6 2l275 270c2 2 3 4 3 6z m-17 4l-267-262l-122 123l255 255l134 0z m-79 8c23 0 41 19 41 41c0 23-18 41-41 41c-22 0-40-18-40-41c0-22 18-41 40-41z m0 65c13 0 24-11 24-24c0-13-11-24-24-24c-13 0-23 11-23 24c0 13 10 24 23 24z"/>
<glyph unicode="&#57423;" d="M401 222c-61 0-111-50-111-111c0-61 50-111 111-111c61 0 111 50 111 111c0 61-50 111-111 111z m0-205c-52 0-94 42-94 94c0 52 42 94 94 94c52 0 94-42 94-94c0-52-42-94-94-94z m51 102l-102 0c-5 0-9-3-9-8c0-5 4-9 9-9l102 0c5 0 9 4 9 9c0 5-4 8-9 8z m-37 255l0 129c0 3-1 5-2 7c-2 1-4 2-6 2l0 0l-135 0c-2 0-4-1-6-3l-263-263c-4-3-4-9 0-12l134-135c2-1 4-2 6-2c0 0 0 0 0 0c2 0 5 1 6 2l264 269c1 2 2 4 2 6z m-17 4l-255-261l-122 123l255 255l122 0z m-67 9c23 0 41 19 41 41c0 23-18 41-41 41c-22 0-40-18-40-41c0-22 18-41 40-41z m0 65c13 0 24-11 24-24c0-13-11-24-24-24c-13 0-23 11-23 24c0 13 10 24 23 24z"/>
<glyph unicode="&#57424;" d="M168 458c-1 2-4 3-6 3l-153 0c-5 0-9-4-9-9l0-145c0-2 1-4 3-6l301-299c1-1 4-2 6-2c2 0 4 1 6 2l150 151c2 2 3 4 3 6c0 2-1 5-3 6z m142-437l-293 290l0 133l142 0l289-285z m-82 488c-2 2-4 3-6 3l-145 0c-5 0-9-4-9-9c0-4 4-8 9-8l141 0l273-273l-19-20c-4-3-4-8 0-12c1-1 4-2 6-2c2 0 4 1 6 2l26 26c3 3 3 9 0 12z m-123-105c-22 0-40-18-40-40c0-23 18-41 40-41c23 0 41 18 41 41c0 22-18 40-41 40z m0-64c-13 0-23 11-23 24c0 13 10 23 23 23c13 0 24-10 24-23c0-13-11-24-24-24z"/>
<glyph unicode="&#57425;" d="M168 458c-1 2-4 3-6 3l-153 0c-5 0-9-4-9-9l0-145c0-2 1-4 3-6l301-299c1-1 4-2 6-2c0 0 1 0 2 0c2 1 5 3 6 5l41 105l105 41c2 1 4 4 5 6c0 3-1 6-3 8z m182-334c-3-1-4-3-5-5l-38-95l-290 287l0 133l142 0l286-282z m-122 386c-2 1-4 2-6 2l-154 0c-4 0-8-4-8-9c0-4 4-8 8-8l150 0l270-268l-20-6c-4-1-6-6-5-11c1-3 5-6 8-6c1 0 2 1 3 1l32 11c3 1 5 3 6 6c0 3 0 6-3 8z m-123-106c-22 0-40-18-40-40c0-23 18-41 40-41c23 0 41 18 41 41c0 22-18 40-41 40z m0-64c-13 0-23 11-23 24c0 13 10 23 23 23c13 0 24-10 24-23c0-13-11-24-24-24z"/>
<glyph unicode="&#57426;" d="M410 478l-325 0l0 34l-85 0l0-85l34 0l0-325l-34 0l0-85l85 0l0 34l325 0l0-34l85 0l0 85l-34 0l0 325l34 0l0 85l-85 0z m-393 17l51 0l0-51l-51 0z m51-461l-51 0l0 51l51 0z m410 0l-51 0l0 51l51 0z m-34 68l-34 0l0-34l-325 0l0 34l-34 0l0 325l34 0l0 34l325 0l0-34l34 0z m-17 393l51 0l0-51l-51 0z"/>
<glyph unicode="&#57427;" d="M444 384l0-239c0-5 4-8 8-8c5 0 9 3 9 8l0 239c0 5-4 9-9 9c-4 0-8-4-8-9z m-316 77l239 0c5 0 8 4 8 8c0 5-3 9-8 9l-239 0c-5 0-9-4-9-9c0-4 4-8 9-8z m-94-86l0-230c0-5 4-8 9-8c4 0 8 3 8 8l0 230c0 5-4 9-8 9c-5 0-9-4-9-9z m94-324l239 0c5 0 8 4 8 9c0 4-3 8-8 8l-239 0c-5 0-9-4-9-8c0-5 4-9 9-9z m324 376c24 0 43 19 43 42c0 24-19 43-43 43c-23 0-42-19-42-43c0-23 19-42 42-42z m0 68c14 0 26-12 26-26c0-14-12-25-26-25c-14 0-25 11-25 25c0 14 11 26 25 26z m-409-77c23 0 42 19 42 43c0 23-19 42-42 42c-24 0-43-19-43-42c0-24 19-43 43-43z m0 68c14 0 25-11 25-25c0-14-11-26-25-26c-14 0-26 12-26 26c0 14 12 25 26 25z m409-469c24 0 43 19 43 43c0 23-19 42-43 42c-23 0-42-19-42-42c0-24 19-43 42-43z m0 68c14 0 26-11 26-25c0-14-12-26-26-26c-14 0-25 12-25 26c0 14 11 25 25 25z m-409-68c23 0 42 19 42 43c0 23-19 42-42 42c-24 0-43-19-43-42c0-24 19-43 43-43z m0 68c14 0 25-11 25-25c0-14-11-26-25-26c-14 0-26 12-26 26c0 14 12 25 26 25z"/>
<glyph unicode="&#57428;" d="M503 375l-128 0l0 128c0 5-3 9-8 9l-358 0c-5 0-9-4-9-9l0-358c0-5 4-8 9-8l128 0l0-128c0-5 3-9 8-9l358 0c5 0 9 4 9 9l0 358c0 5-4 8-9 8z m-366-8l0-213l-120 0l0 341l341 0l0-120l-213 0c-5 0-8-3-8-8z m358-350l-341 0l0 341l341 0z"/>
<glyph unicode="&#57429;" d="M503 375l-128 0l0 128c0 5-3 9-8 9l-358 0c-5 0-9-4-9-9l0-358c0-5 4-8 9-8l128 0l0-128c0-5 3-9 8-9l358 0c5 0 9 4 9 9l0 358c0 5-4 8-9 8z m-486 120l341 0l0-341l-341 0z m478-478l-341 0l0 120l213 0c5 0 8 3 8 8l0 213l120 0z"/>
<glyph unicode="&#57430;" d="M34 137l97 0l-63-125c-2-4-1-9 3-11c2-1 3-1 4-1c3 0 6 2 8 5l67 132l89 0l0-128c0-5 4-9 8-9c5 0 9 4 9 9l0 128l89 0l67-132c2-3 5-5 8-5c1 0 2 0 4 1c4 2 5 7 3 11l-63 125l114 0c16 0 25 9 25 25c0 17-9 26-25 26l0 247c0 5-4 9-9 9l-162 0l0 8c0 5-4 9-8 9l-43 0l0 42c0 5-4 9-9 9c-4 0-8-4-8-9l0-42l-43 0c-4 0-8-4-8-9l0-8l-145 0c-5 0-9-4-9-9l0-247c-16 0-25-9-25-26c0-16 9-25 25-25z m171 307l85 0l0-17l-85 0z m-154-17l137 0l0-9c0-5 4-8 8-8l103 0c4 0 8 3 8 8l0 9l154 0l0-239l-410 0z m-17-256l444 0c7 0 8-2 8-9c0-7-1-8-8-8l-444 0c-7 0-8 1-8 8c0 7 1 9 8 9z"/>
<glyph unicode="&#57431;" d="M444 508c-3 0-5-1-7-3l-239-308c-1-1-1-2-2-4c-8 3-18 5-27 5c-29 0-57-14-73-35c-8-11-12-24-17-38c-10-33-20-63-70-61c-3 0-7-2-8-5c-2-3-1-7 2-9c29-30 66-46 106-46c62 0 124 39 140 90c7 20 5 40-4 58c0 0 0 0 0 0l265 282c1 1 2 4 2 6c0 40-5 68-68 68z m-211-409c-14-43-70-78-124-78c-29 0-55 9-79 27c45 7 57 43 66 72c4 13 8 25 13 33c13 17 36 28 60 28c15 0 28-5 39-13c32-23 31-50 25-69z m2 67c-5 6-10 11-17 16c-2 2-4 3-7 5c0 0 0 0 1 0l16 21l22-22c1 0 1-1 2-1z m28 30c0 1 0 2-1 2l-23 24l209 269c45-1 47-17 47-48z"/>
<glyph unicode="&#57432;" d="M418 307l-111 0c-6 0-8 3-10 5c-1 2-1 12 1 18c7 17 9 28 9 45l3 75c0 34-28 62-62 62c-34 0-60-26-60-60l0-77c0-17 2-28 9-45c2-6 2-16 1-18c-2-2-4-5-10-5l-111 0c-23 0-43-28-43-51l0-85l17 0l0-162c0-5 4-9 9-9l59 0c4 0 7 2 8 5l27 53l0-49c0-5 3-9 8-9l273 0c5 0 9 4 9 9l0 162l17 0l0 85c0 23-20 51-43 51z m9-290l-34 0l0 102c0 5-4 9-9 9c-5 0-9-4-9-9l0-102l-34 0l0 77c0 5-3 8-8 8c-5 0-9-3-9-8l0-77l-34 0l0 43c0 4-4 8-8 8c-5 0-9-4-9-8l0-43l-102 0l0 77c0 4-3 7-7 8c-4 1-8-1-10-4l-40-81l-46 0l0 154l359 0z m17 171l-393 0l0 68c0 14 14 34 26 34l111 0c10 0 18 4 24 12c6 9 4 26 1 34c-7 16-8 24-8 39l0 77c0 25 18 43 43 43c25 0 45-20 45-45l-3-75c0-15-1-23-8-39c-3-8-5-25 1-34c6-8 14-12 24-12l111 0c12 0 26-20 26-34z m-196 281c-11 0-19-9-19-19c0-11 8-20 19-20c10 0 19 9 19 20c0 10-9 19-19 19z m-2-19c0 1 1 2 2 2c1 0 2-1 2-2c0-3-4-3-4 0z"/>
<glyph unicode="&#57433;" d="M133 88c9-10 22-15 35-15c14 0 27 5 36 15l151 151l57 0c3 0 6 2 7 5c2 3 1 7-1 9l-188 197c-2 1-4 2-6 2c-2 0-5-1-6-2l-3-3l0 22c0 24-19 43-42 43l-17 0c-24 0-43-19-43-43l0-124l-83-83c-20-20-20-52 0-72z m-3 381c0 14 12 26 26 26l17 0c14 0 25-12 25-26l0-39l-68-68z m-88-219l86 85c0 0 0 0 0 0l70 71l0-116c0-5 4-8 9-8c5 0 8 3 8 8l0 133l9 9l168-176l-40 0c-2 0-5-1-6-3l-154-153c-13-13-34-13-47 0l-103 102c-13 14-13 35 0 48z m388-67c-6-9-53-92-53-123c0-35 26-60 60-60c35 0 60 25 60 60c0 31-47 114-52 123c-3 6-12 6-15 0z m7-166c-25 0-42 18-42 43c0 19 26 71 42 102c17-31 43-83 43-102c0-25-18-43-43-43z"/>
<glyph unicode="&#57434;" d="M358 9l0 42l43 0c5 0 9 4 9 9l0 68c0 5-4 9-9 9l-43 0l0 226l151 134c4 3 4 9 1 12c-3 4-9 4-12 1l-151-135l-228 0l0 43c0 5-3 9-8 9l-68 0c-5 0-9-4-9-9l0-43l-25 0c-5 0-9-3-9-8l0-68c0-5 4-9 9-9l25 0l0-230c0-5 4-9 9-9l230 0l0-42c0-5 4-9 9-9l68 0c5 0 8 4 8 9z m-256 401l0-35l-51 0l0 35z m-85-103l0 51l324 0l0-221l-51 0l0 162c0 1 0 2-1 3c0 2-2 4-4 5c-1 0-2 0-3 0z m102-17l142 0l-142-141z m154-12l0-141l-141 0z m-222-210l0 222l51 0l0-162c0-1 1-2 1-3c1-2 3-4 5-5c1 0 2-1 3-1l282 0l0-51z m239-51l0 34l51 0l0-34z"/>
<glyph unicode="&#57435;" d="M341 393l-34 0l0 59c0 29-24 60-60 60c-35 0-59-31-59-60l0-59l-34 0c-5 0-9-4-9-9c0-5 4-9 9-9l34 0l0-162c0-24 12-45 34-56l0-46c0-5 4-9 8-9l35 0c4 0 8 4 8 9l0 46c22 13 34 33 34 56l0 162l34 0c5 0 9 4 9 9c0 5-4 9-9 9z m-136 59c0 21 17 43 42 43c26 0 43-22 43-43l0-59l-85 0z m85-239c0-26-20-39-29-43c-3-2-5-5-5-8l0-43l-17 0l0 43c0 4-2 7-5 8c-9 4-29 16-29 43l0 162l85 0z m-43-17c10 0 26 5 26 17l0 120c0 5-4 8-8 8l-35 0c-4 0-8-3-8-8l0-120c0-12 16-17 25-17z m-4-118c-5-8-23-34-23-48c0-17 14-30 30-30c17 0 30 13 30 30c0 14-17 40-23 48c-3 5-10 5-14 0z m7-61c-7 0-13 6-13 13c0 4 6 16 13 27c8-11 13-23 13-27c0-7-5-13-13-13z"/>
<glyph unicode="&#57436;" d="M375 341l-34 0l0 77c0 52-38 94-85 94c-47 0-85-42-85-94l0-77l-34 0c-5 0-9-3-9-8c0-5 4-9 9-9l34 0l0-187c0-44 19-78 51-92l0-36c0-5 4-9 8-9l52 0c4 0 8 4 8 9l0 36c32 14 51 48 51 92l0 187l34 0c5 0 9 4 9 9c0 5-4 8-9 8z m-187 77c0 42 30 77 68 77c38 0 68-35 68-77l0-77l-136 0z m136-281c0-39-17-68-45-78c-4-1-6-4-6-8l0-34l-34 0l0 34c0 4-2 7-6 8c-28 10-45 39-45 78l0 51l34 0c5 0 8 4 8 8c0 5-3 9-8 9l-34 0l0 17l34 0c5 0 8 4 8 8c0 5-3 9-8 9l-34 0l0 17l34 0c5 0 8 4 8 9c0 4-3 8-8 8l-34 0l0 51l136 0z"/>
<glyph unicode="&#57437;" d="M341 324l-34 0l0 69c0 34-25 59-60 59c-34 0-59-25-59-59l0-69l-34 0c-5 0-9-4-9-8c0-5 4-9 9-9l34 0l0-153c0-21 11-37 34-49l0-45c0-5 4-9 8-9l35 0c4 0 8 4 8 9l0 45c23 12 34 28 34 49l0 153l34 0c5 0 9 4 9 9c0 4-4 8-9 8z m-136 69c0 25 17 42 42 42c26 0 43-17 43-42l0-69l-85 0z m85-239c0-16-9-26-29-35c-3-2-5-5-5-8l0-43l-17 0l0 43c0 3-2 6-5 8c-20 9-29 19-29 35l0 153l85 0z"/>
<glyph unicode="&#57438;" d="M326 509c-3 4-9 4-12 0l-162-162c-1-1-2-2-2-3c0 0 0 0 0-1c0 0-1-1-1-2c0 0 0 0 0-1l9-82l-93-142c-2-4-1-8 2-11l17-17c1-2 3-3 6-3c1 0 3 1 5 2l134 100l82-8c0 0 0 0 0 0c0 0 0 0 0 0c1 0 2 0 3 1c0 0 0 0 0 0c2 0 3 1 4 2l162 162c3 3 3 9 0 12z m-96-305l-55 56l-6 58l120-119z m-140-99l-7 7l85 130l45-45z m221 95l-141 141l150 150l142-141z m-263-128c-4-8-18-36-18-46c0-15 11-26 25-26c15 0 26 11 26 26c0 10-14 38-18 46c-3 6-12 6-15 0z m7-55c-4 0-8 4-8 9c0 3 4 12 8 23c5-11 9-20 9-23c0-5-4-9-9-9z"/>
<glyph unicode="&#57439;" d="M503 341c5 0 9 4 9 9c0 5-4 8-9 8l-145 0l0 145c0 5-3 9-8 9c-5 0-9-4-9-9l0-145l-85 0l0 145c0 5-4 9-9 9c-4 0-8-4-8-9l0-145l-85 0l0 145c0 5-4 9-9 9c-5 0-8-4-8-9l0-145l-128 0c-5 0-9-3-9-8c0-5 4-9 9-9l128 0l0-85l-128 0c-5 0-9-4-9-9c0-4 4-8 9-8l128 0l0-85l-128 0c-5 0-9-4-9-9c0-5 4-8 9-8l128 0l0-128c0-5 3-9 8-9c5 0 9 4 9 9l0 128l85 0l0-128c0-5 4-9 8-9c5 0 9 4 9 9l0 128l85 0l0-128c0-5 4-9 9-9c5 0 8 4 8 9l0 128l145 0c5 0 9 3 9 8c0 5-4 9-9 9l-145 0l0 85l145 0c5 0 9 4 9 8c0 5-4 9-9 9l-145 0l0 85z m-349 0l85 0l0-85l-85 0z m0-187l0 85l85 0l0-85z m187 0l-85 0l0 85l85 0z m0 102l-85 0l0 85l85 0z"/>
<glyph unicode="&#57440;" d="M94 375c5 0 8 4 8 9c0 5-3 9-8 9l-17 0c-5 0-9-4-9-9l0-239c0-5 4-8 9-8l358 0c5 0 9 3 9 8l0 43c0 4-4 8-9 8c-5 0-8-4-8-8l0-34l-342 0l0 221z m418-145l0 239c0 5-4 9-9 9l-358 0c-5 0-8-4-8-9l0-239c0-4 3-8 8-8l358 0c5 0 9 4 9 8z m-17 9l-341 0l0 222l341 0z m-486-188l358 0c5 0 8 4 8 9l0 42c0 5-3 9-8 9c-5 0-9-4-9-9l0-34l-341 0l0 222l17 0c5 0 9 4 9 9c0 4-4 8-9 8l-25 0c-5 0-9-4-9-8l0-239c0-5 4-9 9-9z"/>
<glyph unicode="&#57441;" d="M418 369l41 89c1 3 1 6-2 8c-2 2-5 3-8 1l-89-40l-56 56c-2 2-6 3-9 1c-3-1-4-4-3-8l15-79l-96-40c-3-2-5-5-5-8c1-3 3-6 6-6l95-15l-287-288c-4-3-4-9 0-12c1-2 3-2 6-2c2 0 4 0 6 2l288 288l14-95c1-3 3-6 6-6c1 0 1 0 1 0c3 0 6 1 7 4l40 89l81-8c0 0 0 0 0 0c4 0 8 3 8 7c0 3-1 5-3 6z m-33-46c-4 0-6-1-8-4l-32-72l-14 87c0 3-2 5-6 6l-85 13l79 33c3 1 5 5 4 8l-13 62l43-43c2-2 6-3 8-1l77 34l-35-76c-1-3-1-6 1-8l46-46z"/>
<glyph unicode="&#57442;" d="M285 295l-280-280c-3-3-3-9 0-12c2-2 4-2 6-2c2 0 5 0 6 2l280 280c3 3 3 9 0 12c-3 3-9 3-12 0z m218 80l-68 0c-5 0-8-4-8-9c0-4 3-8 8-8l68 0c5 0 9 4 9 8c0 5-4 9-9 9z m-91 37c2-2 4-3 6-3c2 0 5 1 6 3l51 51c4 3 4 8 0 12c-3 3-8 3-12 0l-51-51c-3-4-3-9 0-12z m-45 99c-5 0-9-3-9-8l0-68c0-5 4-9 9-9c5 0 8 4 8 9l0 68c0 5-3 8-8 8z m-96-36c-4 3-9 3-12 0c-4-4-4-9 0-12l51-51c1-2 4-3 6-3c2 0 4 1 6 3c3 3 3 8 0 12z m28-100l-69 0c-4 0-8-4-8-9c0-4 4-8 8-8l69 0c4 0 8 4 8 8c0 5-4 9-8 9z m68-77c-5 0-9-4-9-8l0-69c0-4 4-8 9-8c5 0 8 4 8 8l0 69c0 4-3 8-8 8z m57 23c-3 4-9 4-12 0c-3-3-3-9 0-12l51-51c2-2 4-3 6-3c3 0 5 1 6 3c4 3 4 9 0 12z"/>
<glyph unicode="&#57443;" d="M445 309c-4 3-9 3-12 0l-163-162c-16-17-38-26-62-26c-23 0-45 9-62 26c-34 34-34 90 0 124l161 162c4 3 4 9 0 12l-59 60c-1 2-3 3-6 3c-2 0-4-1-6-3l-170-170c-78-78-82-204-9-277c34-34 83-54 134-54c51 0 100 20 134 54l179 179c4 4 4 9 0 12z m-203 178l47-48l-34-34l-48 47z m71-417c-31-31-75-49-122-49c-46 0-91 18-122 49c-66 66-62 182 9 252l117 118l48-47l-109-110c-41-41-41-107 0-148c20-20 46-31 74-31c28 0 55 11 75 31l109 109l47-48z m138 138l-47 48l35 35l47-48z"/>
<glyph unicode="&#57444;" d="M156 54c2-2 4-3 6-3c2 0 5 1 6 3c17 16 30 24 43 24c10 0 20-5 30-16c4-3 9-3 13 0l25 26c0 0 0 0 0 0c0 0 1 0 1 0l230 281c3 3 3 8 0 11l-130 129c-3 4-8 4-11 1l-272-239c0 0 0 0 0 0c0 0-1 0-1 0l-25-26c-2-2-3-4-3-6c0-2 1-5 3-6c12-12 17-24 15-35c-2-12-9-24-24-38c-1-2-2-4-2-6c0-3 1-5 2-6l20-20l-79-79c-3-3-4-6-2-10c1-3 4-5 8-5l85 0c2 0 4 1 6 3l37 36z m-66-3l-61 0l65 65l30-31z m284 441l118-118l-220-267l-157 157z m-271-297c2 15-2 29-14 44l13 13l159-158l-14-14c-12 10-24 15-36 15c-16 0-31-7-49-23l-82 82c14 14 21 28 23 41z m400-178l-366 0c-5 0-9-4-9-8c0-5 4-9 9-9l366 0c5 0 9 4 9 9c0 4-4 8-9 8z"/>
<glyph unicode="&#57445;" d="M243 495c-65 0-127-25-172-71c-98-98-94-267 8-370c10-10 23-15 36-15c14 0 26 5 36 15c20 20 20 52 0 72c-13 13-14 25-8 30c3 3 4 3 5 3c2 0 7-1 17-11l93-94c24-24 57-37 92-37c35 0 67 13 91 37c98 97 94 260-8 362c-51 50-120 79-190 79z m186-429c-21-21-49-32-79-32c-31 0-59 11-79 32l-94 94c-12 11-21 16-29 16c-6 0-12-2-17-8c-12-11-13-34 8-54c14-14 14-34 0-48c-13-13-35-13-48 0c-96 96-100 255-8 346c42 43 99 66 160 66c66 0 130-27 178-74c95-96 99-247 8-338z m-82 237c12 0 22 4 30 13c9 8 13 18 13 30c0 11-4 22-13 30c-8 8-18 12-30 12c-11 0-22-4-30-12c-8-8-12-19-12-30c0-12 4-22 12-31c8-8 19-12 30-12z m-18 61c5 5 11 7 18 7c7 0 14-2 18-7c5-5 8-11 8-18c0-7-3-14-8-18c-9-10-26-10-36 0c-5 4-7 11-7 18c0 7 2 13 7 18z m54-101c-7-6-10-15-10-24c0-9 3-18 10-24c6-6 15-10 24-10c9 0 17 4 24 10c6 6 10 15 10 24c0 9-4 18-10 24c-13 13-36 13-48 0z m36-12c3-3 5-7 5-12c0-4-2-9-5-12c-7-6-18-6-24 0c-4 3-5 8-5 12c0 5 1 9 5 12c3 3 7 5 12 5c4 0 8-2 12-5z m-72-67c-13 0-26-5-36-15c-10-10-15-23-15-36c0-14 5-27 15-37c10-9 23-15 36-15c14 0 27 6 37 15c9 10 15 23 15 37c0 13-6 26-15 36c-10 10-23 15-37 15z m24-75c-12-13-35-13-48 0c-6 6-10 15-10 24c0 9 4 17 10 24c7 6 15 10 24 10c9 0 18-4 24-10c7-7 10-15 10-24c0-9-3-18-10-24z m-158 302c-11 0-22-4-30-12c-8-8-12-19-12-30c0-12 4-23 12-31c8-8 19-12 30-12c12 0 22 4 31 12c8 8 12 19 12 31c0 11-4 22-12 30c-9 8-19 12-31 12z m18-61c-9-9-26-9-36 0c-5 5-7 12-7 19c0 6 2 13 7 18c5 4 12 7 18 7c7 0 14-3 18-7c5-5 8-12 8-18c0-7-3-14-8-19z"/>
<glyph unicode="&#57446;" d="M205 5c1-3 4-5 8-5l68 0c3 0 6 2 8 5l128 269c1 2 1 5-1 8l-83 137l41 81c1 2 1 5-1 8c-1 2-4 4-7 4l-247 0c-3 0-6-2-8-4c-1-3-1-6 0-9l49-81l-81-136c-2-3-2-6-1-8z m42 251c-19 0-34 15-34 34c0 19 15 34 34 34c19 0 34-15 34-34c0-19-15-34-34-34z m105 239l-34-68l-143 0l-41 68z m-177-85l144 0l80-133l-124-260l-20 0l0 223c24 4 43 25 43 50c0 28-23 51-51 51c-29 0-51-23-51-51c0-25 18-46 42-50l0-223l-20 0l-122 260z"/>
<glyph unicode="&#57447;" d="M239 0l17 0c3 0 6 2 7 4c5 8 112 193 112 252c0 56-35 103-85 121l0 33l9 0c3 0 7 2 8 6l25 85c1 3 1 5-1 8c-1 2-4 3-7 3l-153 0c-3 0-6-1-7-3c-2-3-2-5-2-8l26-85c1-4 5-6 8-6l9 0l0-33c-50-18-86-65-86-121c0-67 108-244 113-252c1-2 4-4 7-4z m8 213c-14 0-25 12-25 26c0 14 11 26 25 26c15 0 26-12 26-26c0-14-11-26-26-26z m-65 282l131 0l-21-68l-89 0z m40-85l51 0l0-29c-8 2-17 3-26 3c-8 0-17-1-25-3z m25-43c62 0 111-50 111-111c0-42-68-170-102-230l0 171c19 4 34 21 34 42c0 23-19 43-43 43c-23 0-42-20-42-43c0-21 14-38 34-42l0-172c-25 42-102 178-102 231c0 61 49 111 110 111z"/>
<glyph unicode="&#57448;" d="M508 499c0 1 0 2-1 3c0 0 0 1 0 1c-1 1-1 1-2 2c0 0 0 0 0 0c0 0 0 0 0 0c0 0 0 0 0 0c-1 1-1 1-2 2c0 0-1 0-1 0c-1 0-2 1-3 1c0 0 0 0 0 0c-1 0-1 0-2 0c0-1-98-21-189-61c-3-1-5-4-5-8c0-23-14-46-26-62l0 45c0 3-1 6-4 8c-2 1-5 1-8 0c-35-17-58-32-79-53c-59-59-78-113-84-148c-7-39 0-74 18-97l-113-113c-4-4-4-9 0-12c1-2 4-3 6-3c2 0 4 1 6 3l113 113c15-12 34-18 57-18c45 0 99 27 153 76c1 0 1 0 1 0c0 0 0 0 0 0c6 5 11 11 17 16c102 102 146 295 148 303c0 1 0 1 0 2c0 0 0 0 0 0z m-389-273c5 33 23 83 79 139c17 17 35 30 62 44l0-55c0-3 2-6 6-8c3-1 6 0 9 2c2 2 41 42 45 86c58 25 118 41 152 50l-340-340c-14 20-19 49-13 82z m218-30l-45 45c-3 3-9 3-12 0c-4-4-4-9 0-12l44-45c-48-42-96-65-135-65c-18 0-33 4-45 13l339 339c-15-54-53-168-117-245l-40 40c-3 4-9 4-12 0c-3-3-3-8 0-12l41-41c-2-2-5-4-7-6c-4-4-7-8-11-11z"/>
<glyph unicode="&#57449;" d="M247 341c-4 0-8-3-8-8l0-324c0-5 4-9 8-9c5 0 9 4 9 9l0 324c0 5-4 8-9 8z m-232-2c-3 2-7 3-10 2c-3-2-5-5-5-8l0-307c0-4 2-7 5-8c1-1 2-1 4-1c2 0 4 1 6 3l153 153c4 4 4 9 0 12z m2-293l0 266l133-133z m473 295c-4 1-7 0-10-2l-153-154c-4-3-4-8 0-12l153-153c2-2 4-3 6-3c2 0 3 0 4 1c3 1 5 4 5 8l0 307c0 3-2 6-5 8z m-12-295l-133 133l133 133z m-110 320c1 0 1 0 2 0c2 1 4 2 5 4l42 69c2 4 1 10-3 12c-4 2-9 1-12-3l-29-48c-11 64-66 112-134 112c-77 0-137-60-137-137c0-4 4-8 9-8c5 0 8 4 8 8c0 67 53 120 120 120c62 0 111-45 118-104l-54 34c-4 3-9 2-12-2c-2-4-1-10 3-12l69-44c2-1 3-1 5-1z"/>
<glyph unicode="&#57450;" d="M290 232l0 67c0 14-11 25-25 25l-171 0c-5 0-9 4-9 9l0 85c0 5 4 9 9 9l8 0l0-43c0-5 4-9 9-9l307 0c5 0 9 4 9 9l0 49c1-1 3-3 6-3l11 0c4 0 8 4 8 9c0 5-4 8-8 8l-11 0c-3 0-5-1-6-2l0 58c0 5-4 9-9 9l-307 0c-5 0-9-4-9-9l0-59l-8 0c-14 0-26-12-26-26l0-85c0-14 12-26 26-26l171 0c4 0 8-4 8-8l0-66c-20-3-34-18-34-37l0-170c0-18 18-26 34-26l21 0c19 0 30 10 30 26l0 170c0 20-16 33-34 36z m-171 263l291 0l0-102l-291 0z m188-469c0-6-4-9-13-9l-21 0c-7 0-17 3-17 9l0 170c0 14 12 20 24 20c13 0 27-7 27-20z"/>
<glyph unicode="&#57451;" d="M390 509c-3 4-9 4-12 0l-375-375c-4-3-4-9 0-12l119-120c2-1 4-2 6-2c2 0 4 1 6 2l376 376c3 3 3 9 0 12z m-262-488l-107 107l64 65l46-45c1-2 3-3 6-3c2 0 4 1 6 3c3 3 3 8 0 12l-46 45l31 30l37-36c1-2 3-3 6-3c2 0 4 1 6 3c3 3 3 8 0 12l-37 36l35 35l49-49c2-2 4-3 6-3c3 0 5 1 6 3c4 3 4 9 0 12l-49 49l31 31l32-32c2-2 4-3 6-3c2 0 4 1 6 3c3 3 3 8 0 12l-32 32l35 35l45-45c1-2 4-3 6-3c2 0 4 1 6 3c3 3 3 8 0 12l-45 45l30 31l37-37c1-2 4-3 6-3c2 0 4 1 6 3c3 3 3 9 0 12l-37 37l65 64l107-107z"/>
<glyph unicode="&#57452;" d="M509 15l-494 494c-3 3-7 4-10 2c-3-1-5-4-5-8l0-494c0-5 4-9 9-9l494 0c1 0 1 0 1 0c4 0 8 4 8 9c0 2-1 5-3 6z m-492 2l0 466l65-65l-20-19c-3-4-3-9 0-13c2-1 4-2 6-2c2 0 5 1 6 2l20 20l43-43l-24-24c-3-4-3-9 0-12c2-2 4-3 6-3c3 0 5 1 7 3l23 24l39-40l-23-23c-4-4-4-9 0-12c1-2 3-3 6-3c2 0 4 1 6 3l24 23l43-43l-20-20c-3-3-3-8 0-12c2-1 4-2 6-2c3 0 5 1 6 2l20 20l43-43l-23-24c-4-4-4-9 0-12c1-2 3-3 6-3c2 0 4 1 6 3l23 23l40-39l-24-24c-4-3-4-8 0-12c1-1 4-2 6-2c2 0 4 1 6 2l24 24l43-43l-19-20c-4-3-4-8 0-12c1-1 3-2 6-2c2 0 4 1 6 2l19 20l65-65z m66 288c-3 2-6 3-9 2c-4-2-6-5-6-8l0-222c0-5 4-9 9-9l222 0c3 0 6 2 8 6c1 3 0 6-2 9z m2-220l0 193l193-193z"/>
<glyph unicode="&#57453;" d="M194 339c-4 3-9 3-12 0c-4-4-4-9 0-12l145-145c1-2 4-3 6-3c2 0 4 1 6 3c3 3 3 8 0 12z m-4-137l-173-173l0 65c0 5-4 8-8 8c-5 0-9-3-9-8l0-85c0-2 0-3 1-4c1-2 2-3 4-4c1-1 2-1 4-1l85 0c5 0 8 4 8 9c0 4-3 8-8 8l-65 0l173 173c4 4 4 9 0 12c-3 4-8 4-12 0z m321 305c-1 2-2 3-4 4c-1 1-2 1-4 1l-85 0c-5 0-8-4-8-9c0-4 3-8 8-8l65 0l-156-156c-4-4-4-9 0-12c1-2 4-3 6-3c2 0 4 1 6 3l156 156l0-65c0-5 4-8 8-8c5 0 9 3 9 8l0 85c0 2 0 3-1 4z"/>
<glyph unicode="&#57454;" d="M330 339c-3 3-8 3-12 0l-145-145c-3-4-3-9 0-12c2-2 4-3 6-3c2 0 5 1 6 3l145 145c4 3 4 8 0 12z m182-330l0 85c0 5-4 8-9 8c-4 0-8-3-8-8l0-65l-165 165c-3 3-8 3-12 0c-3-4-3-9 0-12l165-165l-65 0c-5 0-8-4-8-8c0-5 3-9 8-9l85 0c2 0 3 0 4 1c2 1 3 2 4 4c1 1 1 2 1 4z m-339 318c2-2 4-3 6-3c2 0 5 1 6 3c4 3 4 8 0 12l-156 156l65 0c5 0 8 4 8 8c0 5-3 9-8 9l-85 0c-2 0-3 0-4-1c-2-1-3-2-4-4c-1-1-1-2-1-4l0-85c0-5 4-8 9-8c4 0 8 3 8 8l0 65z"/>
<glyph unicode="&#57455;" d="M265 367c-5 0-9-4-9-9l0-196c0-5 4-8 9-8c4 0 8 3 8 8l0 196c0 5-4 9-8 9z m-77-94l-157 0l51 45c4 3 4 8 1 12c-3 3-8 4-12 1l-68-60c0 0 0 0 0 0c-1-1-1-2-2-2c0-1 0-1 0-1c-1-1-1-2-1-3c0-2 0-3 1-4c0 0 0 0 0-1c1 0 1-1 2-2c0 0 0 0 0 0l68-60c2-1 4-2 6-2c2 0 5 1 6 3c3 4 3 9-1 12l-51 45l157 0c4 0 8 4 8 9c0 4-4 8-8 8z m324-8c0 1 0 2-1 3c0 0 0 0 0 1c-1 0-1 1-2 2c0 0 0 0 0 0l-68 60c-4 3-9 2-12-1c-3-4-3-9 1-12l51-45l-140 0c-4 0-8-4-8-8c0-5 4-9 8-9l140 0l-51-45c-4-3-4-8-1-12c1-2 4-3 6-3c2 0 4 1 6 2l68 60c0 0 0 0 0 0c1 1 1 2 2 2c0 1 0 1 0 1c1 1 1 2 1 4z"/>
<glyph unicode="&#57456;" d="M503 512l-426 0c-5 0-9-4-9-9l0-426c0-5 4-9 9-9l426 0c5 0 9 4 9 9l0 426c0 5-4 9-9 9z m-8-427l-256 0l0 9c0 5-4 8-9 8c-4 0-8-3-8-8l0-9l-137 0l0 137l9 0c5 0 8 4 8 8c0 5-3 9-8 9l-9 0l0 256l410 0z m-222 180c2 0 4 0 6 2l165 165l0-101c0-4 4-8 8-8c5 0 9 4 9 8l0 121c0 1 0 2-1 4c-1 2-2 3-4 4c-2 1-3 1-4 1l-121 0c-4 0-8-4-8-9c0-4 4-8 8-8l101 0l-165-165c-3-3-3-9 0-12c2-2 4-2 6-2z m-264-128c4 0 8 3 8 8l0 17c0 5-4 9-8 9c-5 0-9-4-9-9l0-17c0-5 4-8 9-8z m136 85l17 0c5 0 9 4 9 8c0 5-4 9-9 9l-17 0c-5 0-8-4-8-9c0-4 3-8 8-8z m-136-154c4 0 8 4 8 9l0 17c0 5-4 8-8 8c-5 0-9-3-9-8l0-17c0-5 4-9 9-9z m196 154l17 0l0-17c0-5 4-9 8-9c5 0 9 4 9 9l0 25c0 5-4 9-9 9l-25 0c-5 0-9-4-9-9c0-4 4-8 9-8z m-43-205l-17 0c-5 0-8-4-8-8c0-5 3-9 8-9l17 0c5 0 9 4 9 9c0 4-4 8-9 8z m-68 0l-17 0c-5 0-9-4-9-8c0-5 4-9 9-9l17 0c5 0 8 4 8 9c0 4-3 8-8 8z m-60 222l-25 0c-5 0-9-4-9-9l0-25c0-5 4-9 9-9c4 0 8 4 8 9l0 17l17 0c5 0 9 4 9 8c0 5-4 9-9 9z m196-196c-4 0-8-4-8-9l0-17l-17 0c-5 0-9-4-9-8c0-5 4-9 9-9l25 0c5 0 9 4 9 9l0 25c0 5-4 9-9 9z m-196-26l-17 0l0 17c0 5-4 9-8 9c-5 0-9-4-9-9l0-25c0-5 4-9 9-9l25 0c5 0 9 4 9 9c0 4-4 8-9 8z m196 154c-4 0-8-4-8-9l0-17c0-5 4-8 8-8c5 0 9 3 9 8l0 17c0 5-4 9-9 9z"/>
<glyph unicode="&#57457;" d="M503 512l-426 0c-5 0-9-4-9-9l0-281c-4 0-8-4-8-9c0-4 4-8 8-8l17 0c5 0 9 4 9 8c0 5-4 9-9 9l0 273l410 0l0-410l-273 0c0 5-4 9-9 9c-4 0-8-4-8-9l0-17c0-4 4-8 8-8c5 0 9 4 9 8l281 0c5 0 9 4 9 9l0 426c0 5-4 9-9 9z m-238-128c-5 0-9-4-9-9l0-110c0-5 4-9 9-9l110 0c5 0 9 4 9 9c0 4-4 8-9 8l-90 0l160 160c3 3 3 9 0 12c-3 3-9 3-12 0l-160-160l0 90c0 5-4 9-8 9z m-256-256c4 0 8 4 8 9l0 17c0 4-4 8-8 8c-5 0-9-4-9-8l0-17c0-5 4-9 9-9z m145 94l-17 0c-5 0-9-4-9-9c0-4 4-8 9-8l17 0c4 0 8 4 8 8c0 5-4 9-8 9z m-145-162c4 0 8 4 8 8l0 17c0 5-4 9-8 9c-5 0-9-4-9-9l0-17c0-4 4-8 9-8z m213 153c0 5-4 9-9 9l-25 0c-5 0-9-4-9-9c0-4 4-8 9-8l17 0l0-17c0-5 4-9 8-9c5 0 9 4 9 9z m-68-196l-17 0c-5 0-9-4-9-8c0-5 4-9 9-9l17 0c4 0 8 4 8 9c0 4-4 8-8 8z m-69 0l-17 0c-4 0-8-4-8-8c0-5 4-9 8-9l17 0c5 0 9 4 9 9c0 4-4 8-9 8z m-51 205l-25 0c-5 0-9-4-9-9l0-25c0-5 4-9 9-9c4 0 8 4 8 9l0 17l17 0c5 0 9 4 9 8c0 5-4 9-9 9z m179-179c-4 0-8-4-8-9l0-17l-17 0c-5 0-9-4-9-8c0-5 4-9 9-9l25 0c5 0 9 4 9 9l0 25c0 5-4 9-9 9z m-179-26l-17 0l0 17c0 5-4 9-8 9c-5 0-9-4-9-9l0-25c0-5 4-9 9-9l25 0c5 0 9 4 9 9c0 4-4 8-9 8z m179 145c-4 0-8-4-8-8l0-17c0-5 4-9 8-9c5 0 9 4 9 9l0 17c0 4-4 8-9 8z"/>
<glyph unicode="&#57458;" d="M460 456c-1 2-2 3-4 4c-2 1-3 1-4 1l-102 0c-5 0-9-4-9-9c0-4 4-8 9-8l82 0l-156-156c-4-4-4-9 0-12c1-2 3-3 6-3c2 0 4 1 6 3l156 156l0-82c0-5 4-9 8-9c5 0 9 4 9 9l0 102c0 1 0 2-1 4z m-365 17c4 0 8 4 8 9l0 13l16 0c5 0 9 4 9 8c0 5-4 9-9 9l-24 0c-5 0-9-4-9-9l0-21c0-5 4-9 9-9z m408 39l-25 0c-5 0-9-4-9-9c0-4 4-8 9-8l17 0l0-17c0-5 4-9 8-9c5 0 9 4 9 9l0 25c0 5-4 9-9 9z m-417-95c0-4 4-8 9-8c4 0 8 4 8 8l0 22c0 5-4 8-8 8c-5 0-9-3-9-8z m93 78c5 0 9 4 9 8c0 5-4 9-9 9l-17 0c-5 0-8-4-8-9c0-4 3-8 8-8z m60 17l-17 0c-5 0-9-4-9-9c0-4 4-8 9-8l17 0c5 0 8 4 8 8c0 5-3 9-8 9z m68-17c5 0 9 4 9 8c0 5-4 9-9 9l-17 0c-5 0-8-4-8-9c0-4 3-8 8-8z m68 0c5 0 9 4 9 8c0 5-4 9-9 9l-17 0c-4 0-8-4-8-9c0-4 4-8 8-8z m60 0c5 0 9 4 9 8c0 5-4 9-9 9l-17 0c-5 0-8-4-8-9c0-4 3-8 8-8z m-196-393l0 128c0 5-4 9-9 9l-128 0l0 8c0 5-3 9-8 9c-5 0-9-4-9-9l0-8l-76 0c-5 0-9-4-9-9l0-221c0-5 4-9 9-9l221 0c5 0 9 4 9 9l0 76c5 0 8 4 8 9c0 5-3 8-8 8z m-17-85l-205 0l0 205l205 0z m85 85l-17 0c-5 0-8-3-8-8c0-5 3-9 8-9l17 0c5 0 9 4 9 9c0 5-4 8-9 8z m68 0l-17 0c-4 0-8-3-8-8c0-5 4-9 8-9l17 0c5 0 9 4 9 9c0 5-4 8-9 8z m60 0l-17 0c-5 0-8-3-8-8c0-5 3-9 8-9l17 0c5 0 9 4 9 9c0 5-4 8-9 8z m68 26c-4 0-8-4-8-9l0-17l-17 0c-5 0-9-3-9-8c0-5 4-9 9-9l25 0c5 0 9 4 9 9l0 25c0 5-4 9-9 9z m0 60c-4 0-8-4-8-9l0-17c0-5 4-8 8-8c5 0 9 3 9 8l0 17c0 5-4 9-9 9z m0 59c-4 0-8-3-8-8l0-17c0-5 4-9 8-9c5 0 9 4 9 9l0 17c0 5-4 8-9 8z m0 69c-4 0-8-4-8-9l0-17c0-5 4-8 8-8c5 0 9 3 9 8l0 17c0 5-4 9-9 9z m0 68c-4 0-8-4-8-9l0-17c0-4 4-8 8-8c5 0 9 4 9 8l0 17c0 5-4 9-9 9z m-417-96c0-4 4-8 9-8c4 0 8 4 8 8l0 22c0 5-4 8-8 8c-5 0-9-3-9-8z m0 65c0-5 4-9 9-9c4 0 8 4 8 9l0 21c0 5-4 9-8 9c-5 0-9-4-9-9z m417 91c-4 0-8-4-8-9l0-17c0-5 4-8 8-8c5 0 9 3 9 8l0 17c0 5-4 9-9 9z"/>
<glyph unicode="&#57459;" d="M350 256l-205 0c-5 0-8-4-8-9c0-4 3-8 8-8l205 0c5 0 8 4 8 8c0 5-3 9-8 9z m-49-174l-45-51l0 148c0 5-4 9-9 9c-4 0-8-4-8-9l0-148l-45 51c-3 4-8 4-12 1c-3-3-4-8-1-12l60-68c0 0 0 0 0 0c1-1 2-1 2-2c1 0 1 0 1 0c1-1 2-1 3-1c2 0 3 0 4 1c0 0 0 0 1 0c0 1 1 1 2 2c0 0 0 0 0 0l60 68c3 4 2 9-1 12c-4 3-9 3-12-1z m-54 242c5 0 9 4 9 9l0 148l45-51c1-2 4-3 6-3c2 0 4 0 6 2c3 3 4 8 1 12l-60 68c0 0 0 0 0 0c-2 2-4 3-7 3c-2 0-4-1-6-3c0 0 0 0 0 0l-60-68c-3-4-2-9 1-12c4-3 9-3 12 1l45 51l0-148c0-5 4-9 8-9z"/>
<glyph unicode="&#57460;" d="M503 324l-290 0c-4 0-8-4-8-8c0-2 1-4 2-6l-190-243l0 1c0 5-4 9-8 9c-5 0-9-4-9-9l0-25c0 0 0-1 0-1c0-1 0-1 1-2c0 0 0-1 0-1c0 0 0 0 0 0c0-1 1-2 1-2c1 0 1 0 1-1c0 0 1-1 2-1c0 0 0 0 1 0c1-1 2-1 3-1l279 0c3 0 5 1 7 3l215 273c2 3 3 7 1 9c-1 3-4 5-8 5z m-213-265l0 9c0 5-4 9-8 9c-5 0-9-4-9-9l0-17l-247 0l200 256l47 0l0-17c0-5 4-8 9-8c4 0 8 3 8 8l0 17l196 0z m-188 376c0-5 4-8 9-8l261 0l-37-37c-3-3-3-9 0-12c2-2 4-3 6-3c3 0 5 1 6 3l52 51c0 1 1 2 1 3c1 2 1 4 0 6c0 2-1 2-1 3l-52 51c-3 4-8 4-12 0c-3-3-3-8 0-12l37-36l-261 0c-5 0-9-4-9-9z m-93-153c4 0 8 3 8 8l0 17l17 0c5 0 9 4 9 9c0 4-4 8-9 8l-25 0c-5 0-9-4-9-8l0-26c0-5 4-8 9-8z m273-26c-5 0-9-4-9-9l0-17c0-4 4-8 9-8c4 0 8 4 8 8l0 17c0 5-4 9-8 9z m0-60c-5 0-9-4-9-8l0-17c0-5 4-9 9-9c4 0 8 4 8 9l0 17c0 4-4 8-8 8z m0-59c-5 0-9-4-9-9l0-17c0-5 4-9 9-9c4 0 8 4 8 9l0 17c0 5-4 9-8 9z m-273 85c4 0 8 4 8 8l0 17c0 5-4 9-8 9c-5 0-9-4-9-9l0-17c0-4 4-8 9-8z m0-60c4 0 8 4 8 9l0 17c0 4-4 8-8 8c-5 0-9-4-9-8l0-17c0-5 4-9 9-9z m0-60c4 0 8 4 8 9l0 17c0 5-4 9-8 9c-5 0-9-4-9-9l0-17c0-5 4-9 9-9z m68 222c-5 0-9-4-9-8c0-5 4-9 9-9l25 0c5 0 9 4 9 9c0 4-4 8-9 8z m68 0c-5 0-8-4-8-8c0-5 3-9 8-9l26 0c4 0 8 4 8 9c0 4-4 8-8 8z"/>
<glyph unicode="&#57461;" d="M239 9l0 273c0 4-3 8-8 8l-20 0l-15 45c-1 4-4 6-8 6l-34 0l0 34l9 0c4 0 8 4 8 9l0 34c0 5-4 9-8 9l-34 0c-5 0-9-4-9-9l0-34c0-5 4-9 9-9l8 0l0-34l-26 0c-3 0-6-2-8-6l-15-45l-28 0c-4 0-8-4-8-8l0-273c0-5 4-9 8-9l171 0c5 0 8 4 8 9z m-102 401l17 0l0-17l-17 0z m-19-86l64 0l11-34l-87 0z m104-307l-153 0l0 256l153 0z m46 393c-5 0-9-4-9-9c0-5 4-8 9-8l64 0c5 0 9 3 9 8c0 5-4 9-9 9z m-14-60l68-25c1-1 2-1 3-1c3 0 7 2 8 6c1 4-1 9-5 11l-68 25c-5 2-10 0-11-5c-2-4 0-9 5-11z m3 77c1 0 2 0 3 0l68 26c4 1 6 6 5 11c-2 4-7 6-11 5l-68-26c-5-1-7-6-5-11c1-3 4-5 8-5z m171 29c2 12-2 24-9 35c-11 13-27 21-44 21c-4 0-8-4-8-9c0-4 4-8 8-8c12 0 23-6 30-15c6-8 8-18 5-28c-1-2 0-5 1-7c1-2 3-3 6-4c21-4 36-22 36-45c0-25-14-42-36-45c-3-1-5-3-6-5c-1-2-2-5 0-8c4-8 3-17-1-25c-7-10-20-16-35-16c-4 0-8-4-8-9c0-4 4-8 8-8c21 0 39 9 49 24c6 10 8 21 5 32c25 8 41 31 41 60c0 28-17 51-42 60z"/>
<glyph unicode="&#57462;" d="M461 171l-109 0c-71 49-40 120-14 177c11 24 20 45 20 62c0 64-51 98-102 98c-51 0-102-34-102-98c0-17 9-38 20-62c26-57 58-128-14-177l-109 0c-28 0-51-25-51-54l0-74c0-5 4-9 9-9l8 0l0-25c0-5 4-9 9-9l460 0c5 0 9 4 9 9l0 25l8 0c5 0 9 4 9 9l0 74c0 29-23 54-51 54z m17-154l-444 0l0 17l444 0z m17 34l-478 0l0 66c0 20 16 37 34 37l111 0c2 0 3 0 5 1c87 58 48 143 22 200c-9 22-18 42-18 55c0 55 44 81 85 81c41 0 85-26 85-81c0-13-9-33-18-55c-26-57-65-142 22-200c2-1 3-1 5-1l111 0c18 0 34-17 34-37z"/>
<glyph unicode="&#57463;" d="M51 349c0-1 1-1 1-1c0-1 0-1 0-2l28-56l-3 0c-5 0-9-4-9-8l0-231c0-29 23-51 51-51l188 0c18 0 37 9 46 22c7 10 9 20 5 31l0 66l17 0c40 0 69 29 69 69c0 39-29 68-69 68l-17 0l0 26c0 4-3 8-8 8l-4 0l30 81c1 1 1 2 1 3c21 2 37 21 41 48c4 35-13 77-61 88c-3 1-7 0-9-3c-2-3-2-7 0-10c13-19 3-31-8-45c-4-6-9-11-11-17c-5-12-5-24-1-34c2-5 6-10 10-14l-48-86l0 202c0 5-4 9-8 9l-103 0c-5 0-8-4-8-9l0-213l-4 0l-48 98c-1 0-1 0-1 0c0 0 0 1 0 1c0 0 0 0 0 0c-1 1-1 1-2 2c0 0 0 0-1 0c0 0 0 0 0 0l-60 35c-2 1-6 1-9-1c-2-2-4-5-3-8l8-68c0 0 0 0 0 0z m288-317c-6-9-19-15-32-15l-188 0c-19 0-34 15-34 34l0 222l256 0l0-222c0-1 1-2 1-3c2-5 1-11-3-16z m36 207c31 0 52-21 52-51c0-30-21-51-52-51l-17 0l0 102z m-71 51l49 88c2-1 4-2 7-3l-32-84c0 0 0 0 0-1l-24 0z m41 138c1 4 5 9 9 13c8 11 20 26 17 46c24-14 32-40 30-63c-2-15-11-33-29-33l0 0c-4 0-8 1-13 3c-7 3-13 8-15 14c-3 6-2 13 1 20z m-157 67l85 0l0-34l-43 0c-4 0-8-4-8-9c0-4 4-8 8-8l43 0l0-17l-26 0c-4 0-8-4-8-9c0-5 4-8 8-8l26 0l0-17l-43 0c-4 0-8-4-8-9c0-5 4-9 8-9l43 0l0-34l-26 0c-4 0-8-3-8-8c0-5 4-9 8-9l26 0l0-34l-85 0z m-89-205l-28 57l37 25l40-82z m-4 93l-29-18l-4 37z"/>
<glyph unicode="&#57464;" d="M9 154l59 0l0-145c0-5 4-9 9-9l256 0c5 0 8 4 8 9l0 350c37 5 69 39 69 76c0 40-37 77-77 77l-256 0c0 0-1 0-1 0c-1 0-2 0-3 0c-40 0-73-35-73-77l0-273c0-5 4-8 9-8z m76 222l0 34l38 0c-7-17-20-31-38-34z m239-359l-239 0l0 341l239 0z m9 478c31 0 60-29 60-60c0-31-29-60-60-60l-213 0c15 14 25 36 25 60c0 24-11 46-27 60z m-316-60c0 32 26 60 56 60c30 0 55-27 55-60c0-3 0-6-1-8l-50 0c-5 0-9-4-9-9l0-247l-51 0z m188-162l85 0c5 0 9 4 9 9c0 4-4 8-9 8l-85 0c-5 0-9-4-9-8c0-5 4-9 9-9z m0-85l85 0c5 0 9 4 9 8c0 5-4 9-9 9l-85 0c-5 0-9-4-9-9c0-4 4-8 9-8z m0-86l85 0c5 0 9 4 9 9c0 5-4 8-9 8l-85 0c-5 0-9-3-9-8c0-5 4-9 9-9z m-83 182c2-2 4-2 6-2c2 0 4 0 6 2l43 43c3 3 3 8 0 12c-4 3-9 3-12 0l-37-37l-2 3c-4 3-9 3-13 0c-3-4-3-9 0-12z m0-85c2-2 4-3 6-3c2 0 4 1 6 3l43 42c3 4 3 9 0 12c-4 4-9 4-12 0l-37-36l-2 2c-4 4-9 4-13 0c-3-3-3-8 0-12z m347 194c-17 0-35-14-40-26c-19-3-36-15-36-43l0-154c0-5 3-9 8-9c5 0 9 4 9 9l0 154c0 16 8 23 17 25l0-306c0-23 20-43 42-43c21 0 43 20 43 51l0 307c0 15-22 35-43 35z m-25-205l51 0l0-120l-51 0z m25 187c14 0 25-13 26-17l0-153l-51 0l0 153c0 4 12 17 25 17z m0-358c-13 0-25 13-25 26l0 8l51 0c0-21-13-34-26-34z"/>
<glyph unicode="&#57465;" d="M164 0c28 0 58 22 58 51l0 282c0 1 0 2-1 3c0 0 0 1 0 1l-51 102c-3 6-13 6-16 0l-51-102c0 0 0-1 0-1c0-1-1-2-1-3l0-282c0-29 34-51 62-51z m-11 324l0-205l-34 0l0 205z m52 0l0-205l-34 0l0 205z m0-222l0-17l-86 0l0 17z m-41-85c-19 0-45 16-45 34l0 17l86 0l0-17c0-19-22-34-41-34z m-2 399l38-75l-37 0c0 0 0 1-1 1c0 0-1-1-1-1l-36 0z m103-416l136 0c5 0 9 4 9 9l0 494c0 5-4 9-9 9l-136 0c-5 0-9-4-9-9l0-494c0-5 4-9 9-9z m128 495l0-478l-120 0l0 68l43 0c4 0 8 4 8 9c0 5-4 8-8 8l-43 0l0 69l43 0c4 0 8 3 8 8c0 5-4 9-8 9l-43 0l0 68l43 0c4 0 8 4 8 9c0 4-4 8-8 8l-43 0l0 68l43 0c4 0 8 4 8 9c0 5-4 8-8 8l-43 0l0 69l43 0c4 0 8 3 8 8c0 5-4 9-8 9l-43 0l0 51z"/>
<glyph unicode="&#57466;" d="M51 102c28 0 51 23 51 52c0 13-5 25-13 34l84 84c4-3 8-5 12-6c-21-35-31-78-31-129l0-52l-26 0c-5 0-9-3-9-8l0-68c0-5 4-9 9-9l68 0c5 0 9 4 9 9l0 68c0 5-4 8-9 8l-25 0l0 52c0 52 11 95 34 128c17 4 31 18 33 36c35 27 81 40 137 40l52 0l0-25c0-5 3-9 8-9l68 0c5 0 9 4 9 9l0 68c0 5-4 9-9 9l-68 0c-5 0-8-4-8-9l0-26l-52 0c-56 0-102-12-139-37c-1 3-2 7-4 10l88 88c9-6 19-9 30-9c28 0 51 23 51 51c0 28-23 51-51 51c-28 0-51-23-51-51c0-11 3-21 9-30l-88-88c-7 4-15 7-24 7c-23 0-42-19-42-43c0-8 2-17 7-23l-85-85c-8 4-16 6-25 6c-28 0-51-23-51-51c0-29 23-52 51-52z m299 393c19 0 34-15 34-34c0-19-15-34-34-34c-19 0-34 15-34 34c0 19 15 34 34 34z m-154-162c14 0 26-12 26-26c0-14-12-25-26-25c-14 0-25 11-25 25c0 14 11 26 25 26z m-145-145c19 0 34-16 34-34c0-19-15-35-34-35c-19 0-34 16-34 35c0 18 15 34 34 34z"/>
<glyph unicode="&#57467;" d="M96 199c-1-3 0-7 3-9l80-65l-40-96c-1-4 0-8 3-10c1-1 3-2 5-2c2 0 4 1 5 2l89 73l97-73c3-3 7-3 10 0c3 2 5 6 3 10l-40 96l78 65c3 2 4 6 3 9c-1 4-4 6-8 6l-103 0l-32 121c-1 4-4 7-8 7c-4 0-8-3-9-7l-24-121l-104 0c-3 0-7-2-8-6z m119-11c4 0 8 3 9 7l18 92l25-93c1-4 4-6 8-6l85 0l-65-53c-3-3-4-7-2-10l30-74l-77 58c-2 1-3 2-5 2c-2 0-4-1-6-2l-67-55l29 71c2 3 1 7-2 10l-66 53z m103 81c0 0 1 0 1 0c4 0 8 3 9 7l43 226c0 2 0 5-2 7c-2 2-4 3-7 3l-236 0c-3 0-5-1-7-3c-1-2-2-5-2-7l43-226c1-5 6-8 10-7c5 1 8 5 7 10l-41 216l69 0l0-131c0-5 4-9 8-9c5 0 9 4 9 9l0 131l51 0l0-131c0-5 4-9 9-9c4 0 8 4 8 9l0 131l62 0l-41-216c-1-5 2-9 7-10z"/>
<glyph unicode="&#57468;" d="M68 273c7-21 24-35 45-38c-3-20 6-41 23-54c17-12 41-13 59-4c10-18 29-31 51-31c21 0 41 13 51 31c18-9 42-8 59 4c17 13 26 34 23 54c20 3 38 17 45 38c7 20 1 42-14 56c15 15 21 37 14 57c-7 20-25 34-45 37c3 21-6 42-23 54c-17 12-41 14-59 4c-10 19-30 31-51 31c-22 0-41-12-51-31c-18 10-42 8-59-4c-17-12-26-33-23-54c-21-3-38-17-45-37c-7-20-1-42 14-57c-15-14-21-36-14-56z m16 107c6 16 21 27 38 27l2 0c3 0 6 1 7 3c2 3 2 6 1 8l0 1c-6 16 0 34 14 44c14 10 34 10 48 0l0-1c3-2 6-2 8-1c3 1 5 3 6 5l0 1c5 17 21 28 38 28c17 0 33-11 38-28l0-1c1-2 3-4 6-5c2-1 5-1 8 1l0 1c14 10 34 10 48 0c14-10 20-28 14-44l0-1c-1-2-1-5 1-7c1-3 4-4 7-4l2 0c17 0 32-11 38-27c5-16-1-33-16-43l0-1c-3-1-4-4-4-7c0-3 1-5 4-7l0-1c15-9 21-27 16-43c-6-16-21-27-38-27l-2 0c-3 1-6-1-7-3c-2-2-2-5-1-8l0-1c6-16 0-34-14-44c-14-10-34-9-48 1l0 0c-3 2-6 3-8 2c-3-1-5-3-6-6l0-1c-5-16-21-28-38-28c-18 0-33 12-38 28l0 1c-1 3-3 5-6 6c-1 0-2 0-3 0c-1 0-3 0-5-2l-1 0c-13-10-33-11-47-1c-14 10-20 28-14 44l0 1c1 3 1 6-1 8c-1 2-4 4-7 3l-2 0c-17 0-32 11-38 27c-5 16 1 34 15 43l1 1c3 2 4 4 4 7c0 3-1 6-4 7l-1 1c-14 10-20 27-15 43z m70-235l0-136c0-4 2-7 5-8c3-2 7-1 9 1l79 80l80-80c1-1 4-2 6-2c1 0 2 0 3 1c3 1 5 4 5 8l0 136l-17 0l0-116l-70 71c-4 3-9 3-13 0l-70-71l0 116z m41 168l-24-71c-1-4 0-8 3-10c3-2 7-2 10 0l63 40l64-40c2-1 3-2 5-2c2 0 3 1 5 2c3 2 4 6 3 10l-24 71l47 48c3 2 4 6 2 9c-1 3-4 5-8 5l-54 0l-32 56c-3 5-12 5-15 0l-32-56l-54 0c-4 0-7-2-8-5c-2-3-1-7 2-9z m18 45c3 0 6 2 8 5l26 46l27-46c2-3 5-5 8-5l39 0l-37-36c-2-3-3-6-2-9l18-54l-48 30c-1 1-3 1-5 1c-1 0-3 0-4-1l-48-30l18 54c1 3 0 6-2 9l-37 36z"/>
<glyph unicode="&#57469;" d="M439 200c19 32 30 68 30 107c0 113-92 205-204 205c-113 0-205-92-205-205c0-34 8-66 23-95l-82-139c-2-3-1-7 1-10c2-2 5-4 8-3l78 15l23-69c1-3 4-5 7-6c1 0 1 0 1 0c3 0 6 1 7 4l76 108c20-6 41-10 63-10c19 0 37 3 55 8l65-106c1-2 4-4 7-4c0 0 0 0 1 0c3 0 6 3 7 6l24 70l79-8c3 0 6 2 8 4c1 3 1 6 0 9z m-317-173l-20 61c-1 4-6 7-10 6l-66-14l67 115c22-34 54-61 92-77z m-45 280c0 104 84 188 188 188c103 0 187-84 187-188c0-103-84-188-187-188c-104 0-188 85-188 188z m342-213c-4 0-8-2-9-6l-20-59l-53 87c37 13 68 38 92 69l58-98z m-61 247l-54 0l-32 64c-3 6-12 6-15 0l-32-64l-54 0c-4 0-7-2-8-5c-2-4-1-7 2-10l47-39l-24-71c-1-3 0-7 3-9c3-3 7-3 10-1l64 40l63-40c2-1 3-1 5-1c2 0 4 0 5 2c3 2 4 6 3 9l-24 71l47 39c3 3 4 6 2 10c-1 3-4 5-8 5z m-56-44c-3-3-4-6-3-10l18-54l-48 30c-1 1-3 2-4 2c-2 0-4-1-5-2l-48-30l18 54c1 4 0 7-3 10l-33 27l36 0c4 0 7 2 8 5l27 53l26-53c1-3 4-5 8-5l36 0z"/>
<glyph unicode="&#57470;" d="M85 171c0-94 77-171 171-171c94 0 171 77 171 171c0 94-77 170-171 170c-94 0-171-76-171-170z m325 0c0-85-69-154-154-154c-85 0-154 69-154 154c0 84 69 153 154 153c85 0 154-69 154-153z m-162 97l-31-63l-55 0c-3 0-7-2-8-6c-1-3 0-7 3-9l46-39l-23-71c-1-4 0-8 2-10c3-2 7-2 10 0l64 39l64-39c1-1 3-2 4-2c2 0 4 1 6 2c2 2 4 6 2 9l-23 72l46 39c3 2 4 6 3 9c-1 4-5 6-8 6l-55 0l-31 63c-3 6-13 6-16 0z m34-76c2-2 5-4 8-4l36 0l-33-28c-2-2-4-6-2-9l18-54l-48 30c-2 1-3 1-5 1c-2 0-3 0-5-1l-48-30l18 54c2 3 0 7-2 9l-33 28l36 0c3 0 6 2 7 4l27 53z m213 320l-111 0c-4 0-7-2-8-5l-59-128c-2-4-1-9 4-11c4-2 9 0 11 4l57 123l33 0l-63-142c-2-4 0-9 4-11c2 0 3-1 4-1c0 0 0 0 0 0c1 0 2 1 3 1c0 0 0 0 0 0c1 1 2 1 2 1c1 1 1 1 1 1c1 1 1 1 2 2l66 149l40 0l-79-167c-2-4 0-9 4-11c1-1 2-1 4-1c3 0 6 2 7 5l86 179c1 2 1 6-1 8c-1 2-4 4-7 4z m-315-140c2-4 7-6 11-4c5 2 6 7 4 11l-59 128c-2 3-5 5-8 5l-111 0c-3 0-6-2-7-4c-2-2-2-6-1-8l86-179c1-3 4-5 7-5c2 0 3 0 4 1c4 2 6 7 4 11l-79 167l40 0l66-149c1-1 1-1 2-2c0 0 0 0 1-1c0 0 1-1 2-1c0 0 0 0 0 0c1 0 2-1 3-1c0 0 0 0 0 0c1 0 2 1 4 1c4 2 6 7 4 11l-63 142l33 0z"/>
<glyph unicode="&#57471;" d="M94 171c0-94 76-171 171-171c94 0 170 77 170 171c0 94-76 170-170 170c-95 0-171-76-171-170z m324 0c0-85-69-154-153-154c-85 0-154 69-154 154c0 84 69 153 154 153c84 0 153-69 153-153z m-161 97l-32-63l-54 0c-4 0-7-2-8-6c-2-3-1-7 2-9l47-39l-24-71c-1-4 0-8 3-10c3-2 7-2 10 0l64 39l63-39c2-1 3-2 5-2c2 0 4 1 5 2c3 2 4 6 3 9l-24 72l47 39c3 2 4 6 2 9c-1 4-4 6-8 6l-54 0l-32 63c-3 6-12 6-15 0z m34-76c1-2 4-4 8-4l36 0l-33-28c-3-2-4-6-3-9l18-54l-48 30c-1 1-3 1-4 1c-2 0-4 0-5-1l-48-30l18 54c1 3 0 7-3 9l-33 28l36 0c4 0 7 2 8 4l27 53z m76 320l-205 0c-5 0-8-4-8-9l0-51c0 0 0-1 0-1l17-103c0-4 4-7 8-7c1 0 1 0 2 0c4 1 7 6 7 10l-17 102l0 42l34 0l0-120c0-4 4-8 8-8c5 0 9 4 9 8l0 120l34 0l0-121c0-4 4-8 9-8c4 0 8 4 8 8l0 121l34 0l0-120c0-4 4-8 9-8c4 0 8 4 8 8l0 120l34 0l0-42l-17-102c0-4 3-9 7-10c1 0 1 0 2 0c4 0 8 3 8 7l17 103c0 0 0 1 0 1l0 51c0 5-3 9-8 9z"/>
<glyph unicode="&#57472;" d="M86 199c-1-3 0-7 2-9l82-74l-25-106c-1-3 1-7 4-9c3-2 7-1 10 1l88 72l80-72c2-1 4-2 6-2c1 0 3 0 4 1c3 2 5 6 4 9l-24 106l81 74c3 2 4 6 3 9c-2 4-5 6-8 6l-97 0l-41 105c-1 3-4 6-7 6c-4 0-7-2-8-5l-49-106l-97 0c-4 0-7-2-8-6z m110-11c4 0 7 2 8 5l43 92l35-92c1-3 5-5 8-5l80 0l-69-62c-2-2-3-5-2-8l19-85l-65 59c-3 2-8 3-11 0l-74-61l20 87c0 3-1 6-3 8l-69 62z m112 62c-2-4 1-9 5-11c1 0 2 0 3 0c3 0 7 2 8 6l68 205c0 0 1 1 1 2l0 51c0 5-4 9-9 9l-273 0c-5 0-9-4-9-9l0-51c0-1 1-1 1-2l59-205c2-4 5-6 9-6c0 0 1 0 2 0c5 2 7 6 6 11l-60 203l0 42l69 0c0-1 0-2 0-2l0-140c0-5 4-9 8-9c5 0 9 4 9 9l0 140c0 0 0 1-1 2l35 0c0-1 0-2 0-2l0-140c0-5 4-9 8-9c5 0 9 4 9 9l0 140c0 0 0 1 0 2l35 0c-1-1-1-2-1-2l0-140c0-5 4-9 9-9c4 0 8 4 8 9l0 140c0 0 0 1 0 2l68 0l0-41z"/>
<glyph unicode="&#57473;" d="M469 401c-23 0-42-19-42-43c0-15 8-28 20-36l-72-71l-102 102c20 7 34 26 34 48c0 28-23 51-51 51c-28 0-51-23-51-51c0-22 14-41 34-48l-102-102l-72 71c12 8 20 21 20 36c0 24-19 43-42 43c-24 0-43-19-43-43c0-23 19-42 43-42c0 0 1 0 1 0l39-163c-25-1-38-21-38-42c0-21 14-43 40-43l342 0c26 0 40 22 40 43c0 21-13 41-38 42l39 163c0 0 1 0 1 0c24 0 43 19 43 42c0 24-19 43-43 43z m-452-43c0 15 12 26 26 26c14 0 25-11 25-26c0-14-11-25-25-25c-14 0-26 11-26 25z m205 43c0 19 15 34 34 34c19 0 34-15 34-34c0-19-15-34-34-34c-19 0-34 15-34 34z m228-290c0-10-5-26-23-26l-342 0c-16 0-23 13-23 26c0 13 7 26 23 26l342 0c18 0 23-17 23-26z m-39 43l-310 0l-35 143l65-64c3-3 8-3 12 0l113 113l113-113c4-3 9-3 13 0l64 64z m58 179c-14 0-25 11-25 25c0 15 11 26 25 26c14 0 26-11 26-26c0-14-12-25-26-25z"/>
<glyph unicode="&#57474;" d="M55 100c-7-2-13-6-17-11c-7-8-10-18-10-29c0-21 14-43 40-43l376 0c26 0 40 22 40 43c0 17-9 34-26 40c30 26 45 58 45 96c0 79-53 137-128 137c-17 0-36-5-56-15c-17 8-35 13-54 14l0 44c28 4 51 29 51 59c0 33-27 60-60 60c-33 0-60-27-60-60c0-30 23-55 51-59l0-44c-19-1-37-6-54-14c-20 10-39 15-56 15c-75 0-128-58-128-137c0-36 16-69 46-96z m412-40c0-10-5-26-23-26l-376 0c-18 0-23 16-23 26c0 9 5 25 23 25l376 0c18 0 23-16 23-25z m-211 418c21 0 38-15 42-34l-84 0c4 19 21 34 42 34z m-42-51l84 0c-4-20-21-34-42-34c-21 0-38 14-42 34z m-77-111c11 0 24-3 38-9c-34-24-57-63-57-109c0-16 3-31 8-46c2-4 7-7 11-5c4 1 7 6 5 11c-4 13-7 26-7 40c0 66 53 118 121 118c68 0 121-52 121-118c0-14-3-28-8-41c-1-4 1-9 6-11c1 0 2 0 3 0c3 0 6 2 8 5c5 15 8 31 8 47c0 46-23 85-57 109c14 6 27 9 38 9c65 0 111-51 111-120c0-47-28-77-53-94l-354 0c-25 18-53 48-53 94c0 69 46 120 111 120z"/>
<glyph unicode="&#57475;" d="M469 401c-23 0-42-19-42-43c0-20 14-36 32-41c-6-25-27-95-92-95c-67 0-94 106-101 137c24 5 41 26 41 51c0 28-23 51-51 51c-28 0-51-23-51-51c0-25 18-46 41-51c-4-31-26-137-92-137c-65 0-93 70-101 95c19 5 32 22 32 41c0 24-19 43-42 43c-24 0-43-19-43-43c0-21 15-38 35-42l42-241c1-4 4-7 8-7l342 0c4 0 7 3 8 7l42 241c20 4 35 21 35 42c0 24-19 43-43 43z m-247 9c0 18 15 34 34 34c19 0 34-16 34-34c0-19-15-35-34-35c-19 0-34 16-34 35z m-205-52c0 15 12 26 26 26c14 0 25-11 25-26c0-14-11-25-25-25c-14 0-26 11-26 25z m402-273l-326 0l-30 173c23-35 54-53 91-53c63 0 91 73 103 121c14-48 46-121 110-121c38 0 64 19 80 43z m50 248c-14 0-25 11-25 25c0 15 11 26 25 26c14 0 26-11 26-26c0-14-12-25-26-25z m-42-299c4 0 8 4 8 9c0 4-4 8-8 8l-342 0c-4 0-8-4-8-8c0-5 4-9 8-9z"/>
<glyph unicode="&#57476;" d="M260 0c84 0 141 48 157 133c25 131-58 314-222 378c-4 2-8 1-10-2c-2-3-2-8 0-11c54-71 57-189 7-254c-9 15-13 34-17 53l0 3c-1 3-3 6-6 7c-2 1-5 0-8-1c-61-44-85-118-62-189c22-71 86-117 161-117z m-99 283c4-21 10-41 24-58c2-2 4-3 7-3c0 0 0 0 0 0c2 0 5 1 6 3c57 62 62 177 17 259c138-70 208-231 186-348c-15-76-66-119-141-119c-68 0-125 41-145 105c-19 60-1 122 46 161z m97-218c34 0 61 27 63 62c0 23-5 54-21 71c-9 8-19 13-30 13c-3 0-6-2-7-4c-2-3-2-6 0-9c8-15 1-31-4-39c-11-19-32-34-47-34c-2 0-3 0-5 1c-2 0-5 0-7-2c-3-2-4-5-3-8c5-30 31-51 61-51z m16 85c7 14 11 27 9 40c1-1 3-2 4-4c13-13 17-40 16-59c0-25-20-45-45-45c-18 0-34 10-41 26c20 3 43 20 57 42z"/>
<glyph unicode="&#57477;" d="M51 13l0 486c0 5-4 9-8 9c-5 0-9-4-9-9l0-486c0-5 4-9 9-9c4 0 8 4 8 9z m17 452l0-256c0-3 2-5 4-7c2-1 5-2 7-1c1 0 83 26 138 26c44 0 44-15 44-21c0-18 12-41 71-41c0 0 0 0 0 0c53 0 120 18 123 19c3 1 6 4 6 8l0 256c0 3-1 5-4 7c-2 1-4 2-7 1c-1 0-65-17-116-17c0 0 0 0 0 0c-18 0-32 3-42 7c-13 5-14 13-14 19c0 17-10 37-59 37c-58 0-141-28-145-29c-3-1-6-4-6-8z m17-6c20 6 88 26 134 26c42 0 42-15 42-20c0-11 4-26 24-35c12-5 29-8 49-8l0 0c41 0 89 10 110 15l0-238c-18-5-70-17-112-17l0 0c-36 0-54 8-54 24c0 18-11 38-61 38c-46 0-107-16-132-23l0 238z"/>
<glyph unicode="&#57478;" d="M230 495l-153 0c-5 0-9-4-9-9l0-273c0-4 4-8 9-8l77 0l0-33c-1-3-2-6-2-10c0-5 4-8 9-8l308 0c0 0 0 0 1 0c4 0 8 3 8 8c0 3-2 6-4 8l-149 118l150 124c3 2 4 6 2 9c-1 3-4 6-8 6l-230 0l0 59c0 5-4 9-9 9z m-145-273l0 256l137 0l0-256z m361 188l-140-115c-2-2-3-4-3-7c0-2 1-5 3-6l139-111l-273 0l0 2c11 27 59 32 59 32c1 0 1 0 1 0c1 0 2 0 2 1c1 0 1 0 1 1c1 0 1 0 2 1c0 0 0 0 1 1c0 0 0 1 0 1c1 1 1 1 1 2c0 0 0 1 0 1l0 197z m-395-401l0 494c0 5-4 9-8 9c-5 0-9-4-9-9l0-494c0-5 4-9 9-9c4 0 8 4 8 9z"/>
<glyph unicode="&#57479;" d="M474 238l-153 120l154 122c2 2 4 6 2 9c-1 4-4 6-8 6l-392 0c-5 0-9-4-9-9l0-256c0-4 4-8 9-8l392 0c0 0 0 0 1 0c4 0 8 4 8 8c0 4-2 6-4 8z m-389 1l0 239l360 0l-143-113c-2-2-3-4-3-7c0-2 1-5 3-6l143-113z m-42 273c-5 0-9-4-9-9l0-494c0-5 4-9 9-9c4 0 8 4 8 9l0 494c0 5-4 9-8 9z"/>
<glyph unicode="&#57480;" d="M123 494c-2-2-4-5-4-8l0-281c0-3 2-6 4-7c2-1 3-2 5-2c1 0 2 0 3 1l316 136c3 2 5 5 5 8c0 4-2 7-5 8l-315 145c-3 1-6 1-9 0z m14-21l286-131l-286-124z m-51 30l0-494c0-5 4-9 9-9c4 0 8 4 8 9l0 494c0 5-4 9-8 9c-5 0-9-4-9-9z"/>
<glyph unicode="&#57481;" d="M102 9l0 207l320 143c3 2 5 5 5 8c0 3-2 6-6 8l-324 136c-1 1-2 1-3 1c0 0 0 0 0 0c0 0 0 0 0 0c-1 0-2 0-3-1c0 0-1 0-1 0c0 0-1 0-1 0c0-1-1-1-1-1c0 0 0-1 0-1c-1 0-1-1-2-2c0 0 0 0 0-1c0-1-1-2-1-3l0-494c0-5 4-9 9-9c5 0 8 4 8 9z m0 226l0 256l295-124z"/>
<glyph unicode="&#57482;" d="M309 130c2-1 4-2 6-2c3 0 5 1 6 2l188 188c4 4 4 9 0 12l-179 179c-3 4-9 4-12 0l-131-130l-36 37c-4 3-9 3-12 0l-111-111c-4-4-4-9 0-12l179-180c2-1 4-2 6-2c2 0 4 1 6 2l52 52l32-27c2-2 4-5 6-8z m15 361l167-167l-175-175c-18 30 15 76 15 76c0 1 0 1 0 1c1 1 1 1 1 2c0 0 0 1 0 1c0 1 0 1 0 2c0 0 0 1 0 2c0 0 0 1 0 1c-1 1-1 1-1 1c-1 1-1 1-1 1l-131 131z m-111-359l-167 167l99 99l36-37l131-131z m-210 129l258-259c2-1 4-2 6-2c2 0 4 1 6 2c3 4 3 9 0 13l-258 258c-3 3-9 3-12 0c-4-4-4-9 0-12z"/>
<glyph unicode="&#57483;" d="M452 427c0 0 0 0 0 0l-196-1l0 60c0 5-4 9-9 9l-153 0c-5 0-9-4-9-9l0-273c0-4 4-8 9-8l77 0l0-43c0-5 3-8 8-8l273 0c5 0 9 3 9 8l0 256c0 2-1 5-3 6c-1 2-3 3-6 3z m-350 51l137 0l0-256l-137 0z m342-307l-255 0c7 31 57 34 59 34c0 0 1 0 1 0c1 0 1 0 2 1c0 0 1 0 1 0c1 1 1 1 2 1c0 1 0 1 0 2c1 0 1 1 1 1c1 1 1 1 1 2c0 0 0 1 0 1l0 196l188 1z m-384 341c-5 0-9-4-9-9l0-494c0-5 4-9 9-9c4 0 8 4 8 9l0 494c0 5-4 9-8 9z"/>
<glyph unicode="&#57484;" d="M95 222l374 0c5 0 9 4 9 8l0 256c0 5-4 9-9 9l-374 0c-5 0-9-4-9-9l0-256c0-4 4-8 9-8z m9 256l357 0l0-239l-357 0z m-53 25l0-494c0-5 4-9 9-9c4 0 8 4 8 9l0 494c0 5-4 9-8 9c-5 0-9-4-9-9z"/>
<glyph unicode="&#57485;" d="M460 495l-408 0c-14 0-27-5-37-15c-10-9-15-22-15-36l0-74c0-1 0-1 0-2c0 0 0-1 0-1l0-341c0-5 4-9 9-9l494 0c5 0 9 4 9 9l0 341c0 0 0 1 0 1c0 1 0 1 0 2l0 74c0 14-5 27-15 36c-10 10-23 15-37 15z m1-17c9 0 17-3 24-10c6-6 10-15 10-24l0-69l-137 0l0 102c0 1 0 1 0 1z m-120-103l-170 0l0 102c0 1 0 1 0 1l170 0c0 0 0 0 0-1z m-314 93c7 7 16 10 25 10l102 0c0 0 0 0 0-1l0-102l-137 0l0 69c0 9 4 18 10 24z m468-434l-478 0l0 324l478 0z m-379 154l55 0l0-51c0-5 3-9 8-9c5 0 9 4 9 9l0 51l57 0c5 0 9 4 9 8c0 5-4 9-9 9l-57 0l0 60c0 4-4 8-9 8c-5 0-8-4-8-8l0-60l-55 0c-5 0-8-4-8-9c0-4 3-8 8-8z m177 56l49 33l-19-175c-1-5 3-9 7-10c1 0 1 0 1 0c5 0 8 4 9 8l21 194c1 3-1 6-4 8c-3 2-6 2-9 0l-64-43c-4-3-5-8-3-12c3-4 8-5 12-3z"/>
<glyph unicode="&#57486;" d="M460 512l-408 0c-29 0-52-23-52-52l0-451c0-5 4-9 9-9l494 0c5 0 9 4 9 9l0 451c0 29-23 52-52 52z m35-52l0-50l-137 0l0 85l102 0c19 0 35-16 35-35z m-324-50l0 85l170 0l0-85z m-154 50c0 19 16 35 35 35l102 0l0-85l-137 0z m478-443l-478 0l0 376l478 0z m-188 282c0 4-4 8-8 8l-69 0c-4 0-8-4-8-8l0-60l-60 0c-5 0-8-4-8-9l0-68c0-5 3-8 8-8l60 0l0-60c0-5 4-9 8-9l69 0c4 0 8 4 8 9l0 60l60 0c5 0 8 3 8 8l0 68c0 5-3 9-8 9l-60 0z m51-77l0-51l-59 0c-5 0-9-4-9-9l0-60l-51 0l0 60c0 5-4 9-9 9l-59 0l0 51l59 0c5 0 9 4 9 8l0 60l51 0l0-60c0-4 4-8 9-8z"/>
<glyph unicode="&#57487;" d="M9 69c99 0 136-12 165-21c23-7 42-13 79-13l140 0c12 0 34 11 34 34c0 10-3 19-8 26c21 4 33 19 33 42c0 7-2 13-6 19c18 5 32 22 32 41c0 10-6 20-14 27c17 5 31 22 31 41c0 23-20 43-43 43l-160 0c5 22 15 76 15 111c0 40-21 58-43 58c-19 0-34-14-34-33c0-77-72-170-162-170l-59 0c-5 0-9-4-9-9l0-188c0-4 4-8 9-8z m8 188l51 0c83 0 179 82 179 187c0 11 9 16 17 16c13 0 26-13 26-41c0-42-17-117-17-118c0-2 0-5 2-7c2-2 4-3 7-3l170 0c13 0 26-13 26-26c0-13-13-26-26-26l-25 0c-5 0-9-3-9-8c0-5 4-9 9-9c13 0 34-13 34-25c0-13-13-26-26-26l-25 0c-5 0-9-4-9-8c0-5 4-9 9-9c9 0 25-3 25-17c0-26-19-26-25-26l-26 0c-5 0-9-3-9-8c0-5 4-9 9-9c26 0 26-19 26-25c0-12-13-17-17-17l-140 0c-35 0-52 5-74 12c-29 9-66 21-162 22z"/>
<glyph unicode="&#57488;" d="M469 324l-158 0c9 25 27 80 18 112c-13 47-40 50-48 50c-19 0-34-16-34-36c0-79-79-166-128-176l0 25c0 4-3 8-8 8l-102 0c-5 0-9-4-9-8l0-256c0-5 4-9 9-9l102 0c5 0 8 4 8 9l0 32c26-4 45-8 61-12c27-7 48-12 85-12l145 0c22 0 34 12 34 34c0 7-2 13-6 18c19 4 31 16 31 34c0 10-2 19-7 26c18 5 33 22 33 42c0 10-5 20-13 27c21 7 30 32 30 50c0 22-20 42-43 42z m-367-273l-85 0l0 239l85 0z m367 196l-27 0c-4 0-8-3-8-8c0-5 4-9 8-9c19 0 36-12 36-25c0-13-13-26-26-26l-25 0c-5 0-9-4-9-8c0-5 4-9 9-9c25 0 25-19 25-25c0-16-19-18-25-18l-26 0c-5 0-8-3-8-8c0-5 3-9 8-9c6 0 26-1 26-17c0-13-4-17-17-17l-145 0c-35 0-55 5-81 11c-17 5-37 9-65 14l0 164c28 4 61 27 91 62c35 42 55 89 55 131c0 11 7 19 16 19c10 0 24-10 31-37c9-29-12-92-21-113c-1-3-1-6 1-8c1-2 4-4 7-4l170 0c13 0 26-12 26-25c0-14-8-35-26-35z m-385-163c0-6-5-11-11-11c-6 0-11 5-11 11c0 6 5 10 11 10c6 0 11-4 11-10z"/>
<glyph unicode="&#57489;" d="M503 443c-99 0-136 12-165 21c-23 7-42 13-79 13l-140 0c-12 0-34-11-34-34c0-10 3-19 8-26c-21-4-33-19-33-42c0-7 2-13 6-19c-18-5-32-22-32-41c0-10 6-20 14-27c-17-5-31-22-31-41c0-23 20-43 43-43l160 0c-5-22-15-76-15-111c0-18 4-33 13-44c8-9 19-14 30-14c19 0 34 14 34 33c0 77 72 170 162 170l59 0c5 0 9 4 9 9l0 188c0 4-4 8-9 8z m-8-188l-51 0c-83 0-179-82-179-187c0-11-9-16-17-16c-6 0-12 3-17 8c-6 8-9 19-9 33c0 42 17 117 17 118c0 2 0 5-2 7c-2 2-4 3-7 3l-170 0c-13 0-26 13-26 26c0 13 13 26 26 26l25 0c5 0 9 3 9 8c0 5-4 9-9 9c-13 0-34 13-34 25c0 13 13 26 26 26l25 0c5 0 9 4 9 8c0 5-4 9-9 9c-9 0-25 3-25 17c0 26 19 26 25 26l26 0c5 0 9 3 9 8c0 5-4 9-9 9c-26 0-26 19-26 25c0 12 13 17 17 17l140 0c35 0 52-5 74-12c29-9 66-21 162-22z"/>
<glyph unicode="&#57490;" d="M503 478l-102 0c-5 0-8-4-8-9l0-32c-26 4-45 8-61 12c-27 7-48 12-85 12l-145 0c-22 0-34-12-34-34c0-7 2-13 6-18c-19-4-31-16-31-34c0-10 2-19 7-26c-18-5-33-22-33-42c0-10 5-20 13-27c-21-7-30-32-30-50c0-22 20-42 43-42l158 0c-9-25-27-80-18-112c13-47 40-50 48-50c19 0 34 16 34 36c0 79 79 166 128 176l0-25c0-4 3-8 8-8l102 0c0 0 0 0 0 0c3 0 5 0 6 2c2 2 3 4 3 6l0 256c0 5-4 9-9 9z m-201-285c-35-42-55-89-55-131c0-11-7-19-16-19c-10 0-24 10-31 37c-9 29 12 92 21 113c1 3 1 6-1 8c-1 2-4 4-7 4l-170 0c-13 0-26 12-26 25c0 14 8 35 26 35l27 0c4 0 8 3 8 8c0 5-4 9-8 9c-19 0-36 12-36 25c0 13 13 26 26 26l25 0c5 0 9 4 9 8c0 5-4 9-9 9c-25 0-25 19-25 25c0 16 19 18 25 18l26 0c5 0 8 3 8 8c0 5-3 9-8 9c-6 0-26 1-26 17c0 13 4 17 17 17l145 0c35 0 55-5 81-11c17-5 37-9 65-14l0-164c-28-4-61-27-91-62z m193 29l-85 0l0 239l85 0z m-45 206c0-6-5-10-11-10c-6 0-11 4-11 10c0 6 5 11 11 11c6 0 11-5 11-11z"/>
<glyph unicode="&#57491;" d="M372 500c-45 0-94-28-116-91c-21 62-70 90-114 90c-79 0-120-76-120-151c0-75 39-157 115-236c56-60 112-97 114-99c2-1 3-1 5-1c2 0 4 0 5 2c1 0 58 45 114 109c77 87 115 167 115 238c0 69-40 139-118 139z m-116-469c-34 23-217 160-217 317c0 92 53 134 103 134c61 0 97-55 106-110c0-4 4-7 8-7c4 0 8 3 8 7c13 82 66 111 108 111c49 0 101-38 101-122c0-146-185-303-217-330z"/>
<glyph unicode="&#57492;" d="M256 512c-141 0-256-115-256-256c0-141 115-256 256-256c141 0 256 115 256 256c0 141-115 256-256 256z m0-495c-132 0-239 107-239 239c0 132 107 239 239 239c132 0 239-107 239-239c0-132-107-239-239-239z m60 334c-21 0-45-12-60-41c-15 29-39 41-60 41c-33 0-67-28-67-74c0-68 117-153 122-157c1-1 3-2 5-2c2 0 4 1 5 2c5 4 122 89 122 157c0 46-34 74-67 74z m-60-213c-35 26-110 92-110 139c0 35 26 57 50 57c25 0 44-20 52-52c1-4 4-6 8-6c4 0 7 2 8 6c8 32 27 52 52 52c24 0 50-22 50-57c0-47-75-113-110-139z"/>
<glyph unicode="&#57493;" d="M410 171c-5 0-9-4-9-9l0-43c0-13-12-25-26-25c-6 0-25 0-25 25l0 22c0 5-4 9-9 9c-4 0-8-4-8-9l0-22c0-26 16-42 42-42c10 0 19 3 26 9l0-18c0-31 16-51 43-51c26 0 42 20 42 51l0 154c0 44-20 71-58 77c-5 0-9-3-10-8c0-4 3-9 7-9c30-5 44-25 44-60l0-154c0-12-3-34-25-34c-23 0-26 22-26 34l0 94c0 5-4 9-8 9z m-315 111c5 0 8 5 7 9c0 5-5 8-9 8c-40-6-67-40-67-82l0-149c0-31 16-51 42-51c27 0 43 20 43 51l0 18c7-6 16-9 26-9c22 0 42 20 42 42l0 26c0 5-4 9-8 9c-5 0-9-4-9-9l0-26c0-13-12-25-25-25c-14 0-26 12-26 25l0 43c0 5-4 9-9 9c-4 0-8-4-8-9l0-94c0-12-3-34-26-34c-22 0-25 22-25 34l0 149c0 34 21 60 52 65z m289 170c0 28-62 43-124 43c-61 0-123-15-123-43c0-37 103-39 123-39c21 0 124 2 124 39z m-230 0c0 8 37 26 106 26c71 0 107-18 107-26c0-6-32-22-107-22c-75 0-106 16-106 22z m102-349c1-1 3-2 4-2c2 0 4 1 5 2c6 3 133 89 133 183c0 55-37 83-73 83c-23 0-50-11-65-42c-14 31-41 45-66 45c-34 0-71-27-71-86c0-101 128-180 133-183z m-62 251c24 0 52-17 58-57c1-5 4-8 8-8c5 0 8 3 9 8c6 40 34 55 56 55c28 0 56-23 56-66c0-76-98-150-121-166c-22 15-120 84-120 166c0 47 28 68 54 68z"/>
<glyph unicode="&#57494;" d="M251 13c2-1 3-1 5-1c2 0 4 0 5 2c1 0 58 45 114 109c77 87 115 167 115 238c0 69-40 139-118 139c-45 0-94-28-116-91c-21 62-70 90-114 90c-79 0-120-76-120-151c0-75 39-157 115-236c56-60 112-97 114-99z m4 18l1 0c0 0 0 0 0 0c0 0-1 0-1 0z m117 452c49 0 101-38 101-122c0-136-160-282-208-323l0 101c0 3-2 6-5 7l-41 25l95 57c3 2 5 5 4 8c0 4-2 6-5 8l-124 47l72 45c2 2 4 4 4 7l0 30c12 81 66 110 107 110z m-230-1c61 0 97-55 105-109l0-25l-82-51c-2-2-4-5-4-8c1-4 3-6 6-8l123-47l-92-56c-3-1-4-4-4-7c0-3 1-6 4-7l49-30l0-97c-47 35-208 164-208 311c0 92 53 134 103 134z"/>
<glyph unicode="&#57495;" d="M454 283c9 25 14 50 15 73c0 63-35 134-111 140c-61 6-101-35-119-82c-18 48-61 88-124 82c-79-6-115-77-115-140c0-143 167-276 219-313l10 14c-36 25-212 160-212 299c0 80 50 119 99 123c48 4 102-25 115-98c0-4 4-7 8-7c4 0 8 3 8 7c13 73 64 102 110 98c47-4 95-43 94-123c0-21-4-43-13-67z m-70-12c-71 0-128-57-128-128c0-70 57-128 128-128c71 0 128 58 128 128c0 71-57 128-128 128z m0-239c-61 0-111 50-111 111c0 61 50 111 111 111c61 0 111-50 111-111c0-61-50-111-111-111z m60 120l-111 0c-5 0-9-4-9-9c0-5 4-8 9-8l111 0c4 0 8 3 8 8c0 5-4 9-8 9z"/>
<glyph unicode="&#57496;" d="M384 271c-71 0-128-57-128-128c0-70 57-128 128-128c71 0 128 58 128 128c0 71-57 128-128 128z m0-239c-61 0-111 50-111 111c0 61 50 111 111 111c61 0 111-50 111-111c0-61-50-111-111-111z m59 120l-50 0l0 50c0 5-4 8-9 8c-5 0-9-3-9-8l0-50l-50 0c-4 0-8-4-8-9c0-5 4-8 8-8l50 0l0-51c0-4 4-8 9-8c5 0 9 4 9 8l0 51l50 0c4 0 8 3 8 8c0 5-4 9-8 9z m11 131c9 25 14 50 15 73c0 63-35 134-111 140c-61 6-101-35-119-82c-18 48-61 88-124 82c-79-6-115-77-115-140c0-143 167-276 219-313l10 14c-36 25-212 160-212 299c0 80 50 119 99 123c48 4 102-25 115-98c0-4 4-7 8-7c4 0 8 3 8 7c13 73 64 102 110 98c47-4 95-43 94-123c0-21-4-43-13-67z"/>
<glyph unicode="&#57497;" d="M383 389c24 24 24 63 0 88c-12 11-28 18-44 18c-17 0-33-7-44-18c-15-15-31-63-40-95c-9 32-25 80-40 95c-11 11-27 18-44 18c-16 0-32-7-44-18c-24-25-24-64 0-88c11-11 40-23 67-32l-194 0l0-102l17 0l0-256l478 0l0 256l17 0l0 102l-196 0c27 9 56 21 67 32z m-195-117l0 68l136 0l0-68z m136-17l0-239l-136 0l0 239z m-17 210c8 8 20 13 32 13c12 0 23-5 32-13c17-18 17-47 0-64c-14-14-71-31-104-40c9 33 26 90 40 104z m-168 0c9 8 20 13 32 13c12 0 24-5 32-13c14-14 31-71 40-104c-33 9-90 26-104 40c-17 17-17 46 0 64z m-122-125l154 0l0-68l-154 0z m17-85l137 0l0-239l-137 0z m444-239l-137 0l0 239l137 0z m17 256l-154 0l0 68l154 0z"/>
<glyph unicode="&#57498;" d="M190 16l0 0c10 0 20 0 31 1c23 0 47 0 70 0c11-1 21-1 31-1c69 0 130 8 130 96c0 3-1 6-4 7l-188 111c-2 2-6 2-8 0l-188-111c-3-1-4-4-4-7c0-88 61-96 130-96z m66 197l179-106c-2-62-38-74-113-74c-10 0-20 1-31 1c-11 0-23 0-35 0c-12 0-24 0-35 0c-11 0-21-1-31-1l0 0c-75 0-111 12-113 74z m-184 88l184 100l184-100c1-1 2-1 4-1c1 0 3 0 4 1c3 1 4 4 4 7l0 68c0 3-1 6-4 8l-188 102c-2 2-6 2-8 0l-188-102c-3-2-4-5-4-8l0-68c0-3 1-6 4-7c3-2 6-2 8 0z m5 70l179 98l179-98l0-49l-175 96c-1 1-3 1-4 1c-1 0-3 0-4-1l-175-96z m-17-191c0-3 1-6 4-7c3-2 6-2 8 0l184 100l184-100c1-1 2-1 4-1c1 0 3 0 4 1c3 1 4 4 4 7l0 68c0 3-1 6-4 8l-188 102c-2 2-6 2-8 0l-188-102c-3-2-4-5-4-8z m17 63l179 98l179-98l0-49l-175 96c-1 1-3 1-4 1c-1 0-3 0-4-1l-175-96z"/>
<glyph unicode="&#57499;" d="M461 380c0 3-2 6-5 7l-187 103c-3 1-6 1-9 0l-187-103c-3-1-5-4-5-7l0-69c0-3 2-5 4-7c3-1 6-1 9 0l184 100l183-100c1-1 3-1 4-1c2 0 3 0 5 1c2 2 4 4 4 7z m-17-54l-175 95c-2 1-3 1-4 1c-2 0-3 0-5-1l-175-95l0 49l180 97l179-97z m17-83c0 3-2 6-5 8l-187 102c-3 1-6 1-9 0l-187-102c-3-2-5-5-5-8l0-68c0-3 2-6 4-7c3-2 6-2 9-1l184 101l183-101c1 0 3-1 4-1c2 0 3 1 5 2c2 1 4 4 4 7z m-17-54l-175 96c-2 1-3 1-4 1c-2 0-3 0-5-1l-175-96l0 49l180 98l179-98z m12-83l-187 102c-3 1-6 1-9 0l-187-102c-3-2-5-5-5-8l0-68c0-3 2-6 4-7c3-2 6-2 9-1l184 101l183-101c1 0 3-1 4-1c2 0 3 1 5 2c2 1 4 4 4 7l0 68c0 3-2 6-5 8z m-12-62l-175 96c-2 0-3 1-4 1c-2 0-3-1-5-1l-175-96l0 49l180 98l179-98z"/>
</font>
</defs>
</svg>
